Tags
Language
Tags

David Elias - Crossing (2005) MCH PS3 ISO + DSD64 + Hi-Res FLAC

Posted By: HDAtall
David Elias - Crossing (2005) MCH PS3 ISO + DSD64 + Hi-Res FLAC

David Elias - Crossing (2005)
PS3 Rip | SACD ISO | DST64 2.0 & 5.0 > 1-bit/2.8224 MHz | 50:26 minutes | Scans included | 3,01 GB
or DSD64 Stereo (from SACD-ISO to Tracks.dsf) > 1-bit/2.8224 MHz | 50:17 min | Full Scans | 1,42 GB
or FLAC 2.0 (carefully converted & encoded to tracks) 24bit/96 kHz | 50:17 min | Full Scans | 1,16 GB
Features Stereo and Multichannel Surround Sound

From the first note it is apparent that this is an extraordinary recording. "Crossing" is a recording for anyone looking to rediscover the FOLK tradition in a contemporary expressive format. It has the songs and the musicians performing that are capable of recreating what many consider to be a lost or at least an endangered art.
– Stereophile Magazine.

Tracklist:

01. Crossing (Lonely Bells)
02. Mend My Mind
03. Close My Eyes
04. Morning Light / Western Town
05. Rodeo On A Ridge
06. Red Tail Guide
07. Heaven's Destiny
08. One More Savior
09. Above The Creek
10. The Riddle Song
11. Changing Down
12. If I Had My Way

foobar2000 1.6.11 / Dynamic Range Meter 1.1.1

––––––––––––––––––––––––––––––––––––––––
Analyzed: David Elias / Crossing
––––––––––––––––––––––––––––––––––––––––

DR Peak RMS Duration Track
––––––––––––––––––––––––––––––––––––––––
DR14 -3.71 dB -24.15 dB 4:15 01-Crossing (Lonely Bells)
DR14 -3.81 dB -23.90 dB 4:00 02-Mend My Mind
DR14 -5.55 dB -22.39 dB 3:30 03-Close My Eyes
DR14 -3.81 dB -21.53 dB 5:59 04-Morning Light / Western Town
DR15 -6.75 dB -27.16 dB 3:04 05-Rodeo On A Ridge
DR14 -2.64 dB -20.01 dB 5:40 06-Red Tail Guide
DR13 -4.41 dB -19.03 dB 3:45 07-Heaven's Destiny
DR13 -6.61 dB -26.31 dB 4:59 08-One More Savior
DR13 -3.25 dB -21.29 dB 3:16 09-Above The Creek
DR13 -3.12 dB -20.94 dB 2:36 10-The Riddle Song
DR13 -5.13 dB -24.68 dB 4:28 11-Changing Down
DR13 -8.13 dB -27.31 dB 4:47 12-If I Had My Way
––––––––––––––––––––––––––––––––––––––––

Number of tracks: 12
Official DR value: DR14

Samplerate: 2822400 Hz / PCM Samplerate: 176400 Hz
Channels: 5
Bits per sample: 24
Bitrate: 14112 kbps
Codec: DST64
================================================================================

––––––––––––––––––––––––––––––––––––––––
Analyzed: David Elias / Crossing
––––––––––––––––––––––––––––––––––––––––

DR Peak RMS Duration Track
––––––––––––––––––––––––––––––––––––––––
DR13 -2.74 dB -18.72 dB 4:16 01-Crossing (Lonely Bells)
DR14 -2.67 dB -18.06 dB 4:01 02-Mend My Mind
DR10 -5.37 dB -16.42 dB 3:30 03-Close My Eyes
DR11 -2.51 dB -16.49 dB 5:59 04-Morning Light / Western Town
DR13 -3.80 dB -21.44 dB 3:03 05-Rodeo On A Ridge
DR14 -2.57 dB -18.55 dB 5:37 06-Red Tail Guide
DR9 -5.31 dB -15.64 dB 3:45 07-Heaven's Destiny
DR13 -3.68 dB -21.45 dB 4:58 08-One More Savior
DR8 -8.48 dB -18.46 dB 3:17 09-Above The Creek
DR11 -4.17 dB -16.56 dB 2:37 10-The Riddle Song
DR12 -4.04 dB -19.66 dB 4:30 11-Changing Down
DR15 -3.84 dB -22.16 dB 4:53 12-If I Had My Way
––––––––––––––––––––––––––––––––––––––––

Number of tracks: 12
Official DR value: DR12

Samplerate: 2822400 Hz / PCM Samplerate: 176400 Hz
Channels: 2
Bits per sample: 24
Bitrate: 5645 kbps
Codec: DST64


Thanks to the Original ripper!
Uncompressed SACD ISO size > 2,86 GB
>