Tags
Language
Tags

Davide Alogna, Chamber Orchestra of New York & Salvatore Di Vittorio - Respighi: Orchestral Works (2021) [24/96]

Posted By: delpotro
Davide Alogna, Chamber Orchestra of New York & Salvatore Di Vittorio - Respighi: Orchestral Works (2021) [24/96]

Davide Alogna, Chamber Orchestra of New York & Salvatore Di Vittorio - Respighi: Orchestral Works (2021)
FLAC (tracks) 24-bit/96 kHz | Front Cover & Digital Booklet | Time - 81:31 minutes | 1,44 GB
Classical | Label: Naxos Records, Official Digital Download

Ottorino Respighi was in the vanguard of the 20th-century rebirth of Italian symphonic music. Famed for his Roman Trilogy, Respighi was also prominent in the synthesis of pre-Classical melodic styles and late-Romantic harmonies and textures. These are the elements that make the Ancient Airs and Dances so captivating and expressive, as Respighi draws on dances by 16th-century composers to brilliant effect. The Concerto allantica is an early, beautifully poetic work that again draws on ancient styles, in a recording that uses the first printed critical edition of the work by Salvatore Di Vittorio, published in 2019.

Tracklist:
1. Davide Alogna, Chamber Orchestra of New York & Salvatore Di Vittorio – Violin Concerto in A Minor, P. 75 "All'antica" (Ed. S. Di Vittorio): I. Allegro (12:49)
2. Davide Alogna, Chamber Orchestra of New York & Salvatore Di Vittorio – Violin Concerto in A Minor, P. 75 "All'antica" (Ed. S. Di Vittorio): II. Adagio non troppo (08:19)
3. Davide Alogna, Chamber Orchestra of New York & Salvatore Di Vittorio – Violin Concerto in A Minor, P. 75 "All'antica" (Ed. S. Di Vittorio): III. Vivace - Tempo di minuetto - Tempo I (09:14)
4. Chamber Orchestra of New York & Salvatore Di Vittorio – Ancient Airs & Dances, Suite No. 1, P. 109: I. Balletto detto "Il conte Orlando" (02:47)
5. Chamber Orchestra of New York & Salvatore Di Vittorio – Ancient Airs & Dances, Suite No. 1, P. 109: II. Gagliarda (03:39)
6. Chamber Orchestra of New York & Salvatore Di Vittorio – Ancient Airs & Dances, Suite No. 1, P. 109: III. Villanella (04:30)
7. Chamber Orchestra of New York & Salvatore Di Vittorio – Ancient Airs & Dances, Suite No. 1, P. 109: IV. Passo mezzo e mascherada (03:58)
8. Chamber Orchestra of New York & Salvatore Di Vittorio – Ancient Airs & Dances, Suite No. 3, P. 172: I. Italiana (02:49)
9. Chamber Orchestra of New York & Salvatore Di Vittorio – Ancient Airs & Dances, Suite No. 3, P. 172: II. Arie di corte (07:11)
10. Chamber Orchestra of New York & Salvatore Di Vittorio – Ancient Airs & Dances, Suite No. 3, P. 172: III. Siciliana (03:51)
11. Chamber Orchestra of New York & Salvatore Di Vittorio – Ancient Airs & Dances, Suite No. 3, P. 172: IV. Passacaglia (03:21)
12. Chamber Orchestra of New York & Salvatore Di Vittorio – Ancient Airs & Dances, Suite No. 2, P. 138: I. Laura soave. Balletto con gagliarda, saltarello e canario (03:37)
13. Chamber Orchestra of New York & Salvatore Di Vittorio – Ancient Airs & Dances, Suite No. 2, P. 138: II. Danza rustica (04:13)
14. Chamber Orchestra of New York & Salvatore Di Vittorio – Ancient Airs & Dances, Suite No. 2, P. 138: III. Campanae parisienses - Aria (05:57)
15. Chamber Orchestra of New York & Salvatore Di Vittorio – Ancient Airs & Dances, Suite No. 2, P. 138: IV. Bergamasca (05:09)

foobar2000 1.4.1 / Dynamic Range Meter 1.1.1
log date: 2021-02-23 15:39:19

––––––––––––––––––––––––––––––––––––––––
Analyzed: Davide Alogna, Chamber Orchestra of New York & Salvatore Di Vittorio / Respighi: Orchestral Works
––––––––––––––––––––––––––––––––––––––––

DR Peak RMS Duration Track
––––––––––––––––––––––––––––––––––––––––
DR18 -1.00 dB -23.80 dB 12:49 01-Respighi: Violin Concerto in A Minor, P. 75 "All'antica" (Ed. S. Di Vittorio): I. Allegro
DR13 -9.14 dB -26.56 dB 8:19 02-Respighi: Violin Concerto in A Minor, P. 75 "All'antica" (Ed. S. Di Vittorio): II. Adagio non troppo
DR17 -3.19 dB -26.20 dB 9:15 03-Respighi: Violin Concerto in A Minor, P. 75 "All'antica" (Ed. S. Di Vittorio): III. Vivace - Tempo di minuetto - Tempo I
DR13 -3.70 dB -21.65 dB 2:48 04-Respighi: Ancient Airs & Dances, Suite No. 1, P. 109: I. Balletto detto "Il conte Orlando"
DR13 -3.89 dB -21.30 dB 3:40 05-Respighi: Ancient Airs & Dances, Suite No. 1, P. 109: II. Gagliarda
DR13 -11.02 dB -29.69 dB 4:31 06-Respighi: Ancient Airs & Dances, Suite No. 1, P. 109: III. Villanella
DR13 -3.01 dB -21.03 dB 3:59 07-Respighi: Ancient Airs & Dances, Suite No. 1, P. 109: IV. Passo mezzo e mascherada
DR13 -5.84 dB -23.18 dB 2:50 08-Respighi: Ancient Airs & Dances, Suite No. 3, P. 172: I. Italiana
DR13 -1.00 dB -19.93 dB 7:11 09-Respighi: Ancient Airs & Dances, Suite No. 3, P. 172: II. Arie di corte
DR13 -1.00 dB -20.50 dB 3:51 10-Respighi: Ancient Airs & Dances, Suite No. 3, P. 172: III. Siciliana
DR12 -1.00 dB -15.15 dB 3:21 11-Respighi: Ancient Airs & Dances, Suite No. 3, P. 172: IV. Passacaglia
DR13 -4.72 dB -23.96 dB 3:38 12-Respighi: Ancient Airs & Dances, Suite No. 2, P. 138: I. Laura soave. Balletto con gagliarda, saltarello e canario
DR13 -3.11 dB -21.12 dB 4:14 13-Respighi: Ancient Airs & Dances, Suite No. 2, P. 138: II. Danza rustica
DR13 -4.82 dB -23.35 dB 5:58 14-Respighi: Ancient Airs & Dances, Suite No. 2, P. 138: III. Campanae parisienses - Aria
DR13 -1.00 dB -19.76 dB 5:09 15-Respighi: Ancient Airs & Dances, Suite No. 2, P. 138: IV. Bergamasca
––––––––––––––––––––––––––––––––––––––––

Number of tracks: 15
Official DR value: DR13

Samplerate: 96000 Hz
Channels: 2
Bits per sample: 24
Bitrate: 2573 kbps
Codec: FLAC
================================================================================


Thanks to the Original customer!