Subcategories

David Carreira - 1991 (2017) [Official Digital Download]

Posted By: HDV
David Carreira - 1991 (2017) [Official Digital Download]

David Carreira - 1991 (2017)
FLAC (tracks) 24-bit/44,1 kHz | Time - 44:17 minutes | 526 MB
Studio Master, Official Digital Download | Artwork: Front cover

David Araújo Antunes, better known by his artistic name David Carreira is a Portuguese Pop, Dance, Hip Hop and R&B singer, an actor and model. Singing in Portuguese, English and French, he has developed an international career and is particularly known in French markets as well with a number of successful singles. "1991" is his fifth album released by WM France.


1991 n'est autre que l'année de naissance de David Carreira, le fils du célèbre crooner portugais Tony Carreira, qui a vu le jour à Dourdan, dans le département de l'Essonne. Il ne faut pas pour autant y voir quelque nostalgie dans le style du jeune homme qui marie ses ballades romantiques et ses morceaux dansants au ton électronique de l'époque.

De cette façon, le chanteur qui partage son temps et son succès entre le Portugal et la France, offrant alternativement un album dans une langue ou dans l'autre, s'écarte ici de la pop latine de son troisième album pour aborder, en français, les rivages de la pop contemporaine mixée au rap, au R&B, à la dance et à l'electro. En témoigne le single « Domino » qui place David Carreira sur le terrain des rappeurs hexagonaux, avec une forte utilisation de l'auto-tune, présente tout au long de l'album.

La suite se situe dans la même lignée, tantôt sentimentale avec les titres « Numero Uno » et « Lucia », tantôt rythmée avec les morceaux imparables que sont « Papillon », « Hola bébé » ou « Senora ». Le mélange dans l'air du temps, très axé sur la production, n'empêche pas la jeune idole de puiser dans d'autres sources musicales pour insuffler un air de flamenco à « Mi Casa Tu Casa » ou un arpège de guitare acoustique, en quantité limitée, comme dans « Juste une dernière danse ». L'album, sorti quelques semaines avant l'été 2017, est prêt pour faire danser les estivants toute une saison.

Tracklist:

01 - Domino (Radio Mix)
02 - Numero Uno
03 - Papillon
04 - Lucia
05 - Mi Casa Tu Casa
06 - Hola Bébé
07 - Maman j'ai pas les mots
08 - Señora
09 - Mya
10 - Juste une dernière danse
11 - Compliqué
12 - Domino (Version acoustique)
13 - Maman j'ai pas les mots (Version acoustique)

Analyzed: David Carreira / 1991
––––––––––––––––––––––––––––––––––––––––

DR Peak RMS Duration Track
––––––––––––––––––––––––––––––––––––––––
DR5 0.00 dB -6.46 dB 3:11 01-Domino (Radio Mix)
DR4 0.00 dB -6.99 dB 3:34 02-Numero Uno
DR7 0.00 dB -8.73 dB 3:04 03-Papillon
DR5 0.00 dB -8.02 dB 3:21 04-Lucia
DR5 0.00 dB -7.59 dB 3:42 05-Mi Casa Tu Casa
DR6 0.00 dB -8.08 dB 3:08 06-Hola Bébé
DR7 0.00 dB -9.37 dB 3:48 07-Maman j'ai pas les mots
DR6 0.00 dB -8.07 dB 4:00 08-Señora
DR6 0.00 dB -8.37 dB 2:59 09-Mya
DR6 0.00 dB -8.29 dB 3:13 10-Juste une dernière danse
DR6 0.00 dB -7.26 dB 3:29 11-Compliqué
DR7 -4.50 dB -13.17 dB 3:21 12-Domino (Version acoustique)
DR6 -3.67 dB -10.84 dB 3:26 13-Maman j'ai pas les mots (Version acoustique)
––––––––––––––––––––––––––––––––––––––––

Number of tracks: 13
Official DR value: DR6

Samplerate: 44100 Hz
Channels: 2
Bits per sample: 24
Bitrate: 1562 kbps
Codec: FLAC
================================================================================


Thanks to the Original customer!