Subcategories

Death Cab For Cutie - Plans (2005/2015) [Official Digital Download]

Posted By: HDV
Death Cab For Cutie - Plans (2005/2015) [Official Digital Download]

Death Cab For Cutie - Plans (2005/2015)
FLAC (tracks) 24-bit/44,1 kHz | Time - 44:24 minutes | 525 MB
Studio Master, Official Digital Download | Artwork: Front cover

"Plans" is the fifth studio album by indie rock band Death Cab for Cutie. "Plans" is a shockingly beautiful and mature album from a group that itself is still maturing. Death Cab for Cutie is that rare band that aren’t afraid to tackle the big thought, to wrestle with the complex, never black and white realities of human interaction. From its soaring beginning to its somber end, ‘Plans’ is the sound of growing up, of gaining friends and losing them, of realising, perhaps for the first time, the weight and consequences of every decision we make, of every heart we touch. It is an album about growing old that can grow old with us.

For your consideration: a wildly successful indie rock band with a legion of followers on an equally successful, highly credible independent label makes the jump to major-label powerhouse Atlantic, leading to much chagrin and speculation among its fans as they awaited with bated breath for what would happen to the group. The result was For Your Own Special Sweetheart, inarguably the most polished and fully realized album of Dischord alumnus Jawbox's career. Fast forward ten years and you find Barsuk's Death Cab for Cutie in the same position, making the same move. A new label, a larger crowd (thanks to their repeated appearances on The OC), and a side project of Ben Gibbard (Postal Service) that very well overshadowed the success of his main project. All of the moves were perfectly aligned to take the little band that could into the rock stratosphere. But the difference between Jawbox and Death Cab for Cutie was that For Your Own Special Sweetheart went on to be the finest release of Jawbox's canon. Plans definitely comes close to that mark, but falls slightly short. In comparison to the dry, raw production of Transatlanticism, Plans is warm and polished, the kind of album expected from a band obsessed with the sound of Fleetwood Mac's Rumours. Chris Walla does an amazing job bringing the group's sound in a different direction than before without compromising too many of the things that made the group sound great to begin with. Thematically, Plans is the Death Cab for Cutie suitable for graduate students, world-weary and wiser from their experiences, realizing they can no longer be love-starved 20-somethings without a clue yet hopelessly cursed to face the same issues. And there's merit to be had in acknowledging that maturity, for even blink-182 figured out their age and released their "serious" album. Gibbard's wispy, poetic lyrics (which could easily have been stolen from Aimee Mann's dressing room while she wasn't looking) still remain an artery from which the rest of the band beats and are some of his finest ever, but this time around the band aligns itself more with a series of emotional murmurs rather than a heart attack. The album winds its way from one ballad to the next, with brief stopovers at moderately up-tempo numbers to help break things up a bit. And it's this sense of resignation that either makes or breaks the album, depending on which Death Cab for Cutie is your favorite: the melancholic, hopeless romantic or the one who wears its heart on its sleeve with unbridled energy and passion. If Transatlanticism was Gibbard's Pet Sounds and Postal Service was SMiLE, then this is definitely Wild Honey, loved by adoring new fans and those who enjoy the ballads. But those hoping for a bit more – for the bar to be raised higher – might find this a mildly predictable exercise in Gibbard exorcising the demons of Phil Collins that haunt him. Plans is both a destination and a transitional journey for the group, one that sees the fulfillment of years of toiling away to develop their ideas and sound. But it's with the completion of those ideas that band is faced with a new set of crossroads and challenges to tread upon: to stay the course and suffer stagnation or try something bold and daringly new with their future. Which road they'll take will make all the difference.

Tracklist:

01 - Marching Bands of Manhattan
02 - Soul Meets Body
03 - Summer Skin
04 - Different Names for the Same Thing
05 - I Will Follow You Into The Dark
06 - Your Heart Is An Empty Room
07 - Someday You Will Be Loved
08 - Crooked Teeth
09 - What Sarah Said
10 - Brothers On A Hotel Bed
11 - Stable Song

Analyzed: Death Cab For Cutie / Plans
––––––––––––––––––––––––––––––––––––––––

DR Peak RMS Duration Track
––––––––––––––––––––––––––––––––––––––––
DR7 -0.64 dB -9.53 dB 4:12 01-Marching Bands of Manhattan
DR7 -0.61 dB -10.00 dB 3:51 02-Soul Meets Body
DR9 -0.69 dB -12.07 dB 3:14 03-Summer Skin
DR9 -0.64 dB -12.70 dB 5:09 04-Different Names for the Same Thing
DR12 -0.65 dB -15.10 dB 3:09 05-I Will Follow You Into The Dark
DR8 -0.60 dB -9.87 dB 3:39 06-Your Heart Is An Empty Room
DR8 -0.61 dB -11.11 dB 3:11 07-Someday You Will Be Loved
DR7 -0.61 dB -9.98 dB 3:24 08-Crooked Teeth
DR8 -0.62 dB -11.84 dB 6:21 09-What Sarah Said
DR8 -0.61 dB -11.67 dB 4:31 10-Brothers On A Hotel Bed
DR8 -0.63 dB -11.99 dB 3:42 11-Stable Song
––––––––––––––––––––––––––––––––––––––––

Number of tracks: 11
Official DR value: DR8

Samplerate: 44100 Hz
Channels: 2
Bits per sample: 24
Bitrate: 1500 kbps
Codec: FLAC
================================================================================


Thanks to the Original customer!

Some more of 'Death Cab For Cutie' in Hi-Res