Deep Purple - Burn (1974/2016) [Official Digital Download 24-bit/96 kHz]

Posted By: HDV
Deep Purple - Burn (1974/2016) [Official Digital Download 24-bit/96 kHz]

Deep Purple - Burn (1974/2016)
FLAC (tracks) 24-bit/96 kHz | Time - 42:26 minutes | 987 MB
Studio Master, Official Digital Download | Artwork: Front cover

Deep Purple's eigth studio album, originally released in 1974. Features slight influences from funk/boogie sounds that would become more prominent in their following album, "Stormbringer".

Although it shook the band's fan base to its core, the acrimonious departure of vocalist Ian Gillan and bassist Roger Glover served to rejuvenate Deep Purple in time for 1973's aptly named Burn album, which unquestionably showed huge improvement over their lackluster previous effort, Who Do We Think We Are. And in an interesting twist rarely attempted before or since, new recruits David Coverdale (vocals) and Glenn Hughes (bass and vocals, ex-Trapeze) traded lead singing duties on virtually every one of its songs – an enviable tag team, as both possessed exceptional pipes. The phenomenal title track started things off at full throttle, actually challenging the seminal "Highway Star" for the honor of best opener to any Deep Purple album, while showcasing the always impressive drumming of Ian Paice. Up next, the intro to the equally timeless "Might Just Take Your Life," however simple from a technical perspective, remains one of organist Jon Lord's signature moments; and the downright nasty "Lay Down, Stay Down" roared behind wildly careening starts and stops and a fantastic Ritchie Blackmore guitar solo which left no doubt as to who was the band's primal force, regardless of lineup. Moving right along, though it was rarely included in later-day greatest hits sets, "What's Going on Here" was about as good a single as Purple ever wrote; "You Fool No One" was compelling for its sheer intensity; and the funky "Sail Away" was a sign of the band's direction in years to come. Lastly, the fantastic slow-boiling blues of "Mistreated" closed the album proper (let's ignore the record's only throw-away track – boring final instrumental "A 200") with a command solo performance from Coverdale, as nuanced and sensitive as it was devastating. So impassioned was the singer's delivery, in fact, that the song would remain his personal, in-concert trademark with Whitesnake, long after his tenure with Deep Purple came to a close. Like the vast majority of Burn this song's greatness qualifies it for the highest echelons of hard rock achievement, and therefore ranks as an essential item in the discography of any self-respecting music fan.

Tracklist:
01 - Burn
02 - Might Just Take Your Life
03 - Lay Down, Stay Down
04 - Sail Away
05 - You Fool No One
06 - What's Going On Here
07 - Mistreated
08 - "A" 200

Analyzed: Deep Purple / Burn
––––––––––––––––––––––––––––––––––––––––

DR Peak RMS Duration Track
––––––––––––––––––––––––––––––––––––––––
DR11 -1.89 dB -16.07 dB 6:05 01-Burn
DR10 -2.30 dB -14.95 dB 4:40 02-Might Just Take Your Life
DR11 -1.95 dB -15.24 dB 4:20 03-Lay Down, Stay Down
DR11 -1.60 dB -14.83 dB 5:53 04-Sail Away
DR11 -2.75 dB -16.31 dB 4:48 05-You Fool No One
DR11 -4.30 dB -17.32 dB 4:59 06-What's Going On Here
DR12 -3.10 dB -18.00 dB 7:30 07-Mistreated
DR10 -5.31 dB -17.29 dB 4:11 08-"A" 200
––––––––––––––––––––––––––––––––––––––––

Number of tracks: 8
Official DR value: DR11

Samplerate: 96000 Hz
Channels: 2
Bits per sample: 24
Bitrate: 2961 kbps
Codec: FLAC
================================================================================


Thanks to the Original customer!