Tags
Language
Tags
March 2024
Su Mo Tu We Th Fr Sa
25 26 27 28 29 1 2
3 4 5 6 7 8 9
10 11 12 13 14 15 16
17 18 19 20 21 22 23
24 25 26 27 28 29 30
31 1 2 3 4 5 6
Attention❗ To save your time, in order to download anything on this site, you must be registered 👉 HERE. If you do not have a registration yet, it is better to do it right away. ✌

( • )( • ) ( ͡⚆ ͜ʖ ͡⚆ ) (‿ˠ‿)
SpicyMags.xyz

Dejan Lazic - C.P.E. Bach & Britten: Liaisons Vol. 3 (2011) MCH SACD ISO + DSD64 + Hi-Res FLAC

Posted By: HDAtall
Dejan Lazic - C.P.E. Bach & Britten: Liaisons Vol. 3 (2011) MCH SACD ISO + DSD64 + Hi-Res FLAC

Dejan Lazić - Liaisons Vol. 3, C.P.E. Bach & Britten (2011)
SACD Rip | SACD ISO | DST64 2.0 & 5.0 > 1-bit/2.8224 MHz | 68:03 minutes | PDF Booklet | 3,56 GB
or DSD64 2.0 Stereo (from SACD-ISO to Tracks.dsf) > 1-bit/2.8224 MHz | PDF Booklet | 1,69 GB
or FLAC Stereo (carefully converted & encoded to tracks) 24bit/48 kHz | PDF Booklet | 594 MB
DSD Recording | Features Stereo and Multichannel Surround Sound | Label: Channel Classics # CCS SA 28511

This is Vol. 3 of Lazic's series entitled "Liaisons" - unexpected pairings of composers who we might not necessarily expect to have much in common. The Carl Philipp Emanuel Bach/Benjamin Britten pairing is a useful one, and it does throw up some interesting similarities and contrasts, but the real pleasure resides in Lazic’s magical readings of the Britten pieces.

Serbian-born pianist and composer Dejan Lazic dazzles with great taste, phrasing, and a clear style of playing in this album of complementary works by C.P.E. Bach and Benjamin Britten. Though one might not ordinarily think of pairing the two composers, here the similarities are quite apparent (hence the title of the series, "Liaisons"). Lazic truly understands the music, as is evidenced by his tasteful phrasing and slight rubati that create dramatic tension in the opening movement of the Bach Sonata in D minor. The turns and trills are lovely ornaments that simply roll off of his fingers, and throughout the sonata his sound is clean and bright. Lazic makes the melody flowing back and forth between hands in the final movement sound like a continuous stream of music. The first set of Britten works is so similar to C.P.E. Bach in character that one hardly notices the track has changed on the CD. The unique little pieces, 5 Waltzes, are an absolute delight, especially "II. Quick, with wit," which surprisingly sounds like Russian ballet music. "III. Dramatic" is completely different in character, revealing Lazic's ability to quickly change emotions. Its use of the pedal for a reverb effect creates a dreamy, floating mood that draws the listener in. Bach's La Böhmer is so rapid-fire and energetic that one cannot help but sit up and take note of Lazic's precision and rhythm. Only when one arrives at Britten's Holiday Diary does one hear the more expected 20th century tonality characteristic of the composer. This is especially evident in the tender, introspective "II. Sailing," with its interesting harmonies in which Lazic makes each note count. Thanks to a clear, balanced recording quality, Lazic always sounds warm and bright; there is never any unwanted or excess noise in his playing. He is an intelligent artist who has chosen repertoire that is well suited to him and that makes an interesting program. The album concludes with Night Piece by Britten, which is a delicate soufflé or heartbeat whisper of a piece. The fact that Lazic can evoke such a wide variety of emotions is a testament to his skills.

Tracklist:

01. C.P.E. Bach: Sonata in D-minor, Wq 69 (H 53) - Allegro
02. C.P.E. Bach: Sonata in D-minor, Wq 69 (H 53) - Andante
03. C.P.E. Bach: Sonata in D-minor, Wq 69 (H 53) - Allegretto con variazioni
04. Britten: 5 Waltzes, op.3 - I. Rather fast and nervous
05. Britten: 5 Waltzes, op.3 - II. Quick, with wit
06. Britten: 5 Waltzes, op.3 - III. Dramatic
07. Britten: 5 Waltzes, op.3 - IV. Rhythmic; not fast
08. Britten: 5 Waltzes, op.3 - V. Variations. Quiet and simple
09. C.P.E. Bach: Fantasia in D major, Wq 117/14 - Allegro
10. C.P.E. Bach: La Böhmer, Wq 117/26 - Prestissimo
11. Britten: Holiday Diary, op.5 - I. Early Morning Bathe (Vivace ma non troppo presto)
12. Britten: Holiday Diary, op.5 - II. Sailing (Andante comodo)
13. Britten: Holiday Diary, op.5 - III. Fun-Fair (Allegro brillantissimo)
14. Britten: Holiday Diary, op.5 - IV. Night (Molto lento e tranquillo, sempre rubato)
15. C.P.E. Bach: Sonata in E-flat major, Wq 65/42 (H 189) - Allegro di molto
16. C.P.E. Bach: Sonata in E-flat major, Wq 65/42 (H 189) - Adagio assai, sostenuto, ed affettuoso
17. C.P.E. Bach: Sonata in E-flat major, Wq 65/42 (H 189) - Presto
18. Britten: Night Piece - Lento tranquillo

Personnel
Dejan Lazić - piano

Produced by C. Jared Sacks & Dejan Lazić. Engineered & Edited by C. Jared Sacks.
Recorded in September 2008 at Frits Philips Muziekcentrum, Eindhoven, The Netherlands.

foobar2000 2.0 / Dynamic Range Meter 1.1.1

––––––––––––––––––––––––––––––––––––––––
Analyzed: Dejan Lazic / Liaison no. 3
––––––––––––––––––––––––––––––––––––––––

DR Peak RMS Duration Track
––––––––––––––––––––––––––––––––––––––––
DR13 -9.57 dB -28.15 dB 5:06 01-Sonata in D Allegro
DR13 -12.29 dB -30.54 dB 3:53 02-Sonata in D Andante
DR14 -9.80 dB -30.03 dB 9:07 03-Sonata in D Allegretto con variazioni
DR12 -10.46 dB -27.97 dB 1:20 04-Waltzes no. 1
DR13 -11.39 dB -30.43 dB 1:54 05-Waltzes no. 2
DR13 -10.25 dB -28.68 dB 1:25 06-Waltzes no. 3
DR14 -10.07 dB -28.74 dB 3:13 07-Waltzes no. 4
DR13 -8.46 dB -29.45 dB 2:19 08-Waltzes no. 5
DR13 -9.23 dB -27.39 dB 1:45 09-Fantasia in D major
DR14 -8.42 dB -26.37 dB 2:58 10-La Bohmer
DR13 -4.81 dB -26.15 dB 2:41 11-Holiday Diary no. 1
DR16 -8.21 dB -30.51 dB 6:36 12-Holiday Diary no. 2
DR13 -6.91 dB -25.63 dB 2:47 13-Holiday Diary no. 3
DR15 -12.55 dB -32.10 dB 5:26 14-Holiday Diary no. 4
DR13 -9.16 dB -27.49 dB 4:03 15-Sonata in E flat Allegro di molto
DR13 -12.30 dB -30.56 dB 4:48 16-Sonata in E flat Adagio assai
DR13 -9.74 dB -27.79 dB 2:35 17-Sonata in E flat Presto
DR15 -8.70 dB -30.63 dB 6:08 18-Night Piece
––––––––––––––––––––––––––––––––––––––––

Number of tracks: 18
Official DR value: DR14

Samplerate: 2822400 Hz / PCM Samplerate: 176400 Hz
Channels: 5
Bits per sample: 1
Bitrate: 14112 kbps
Codec: DST64
================================================================================

––––––––––––––––––––––––––––––––––––––––
Analyzed: Dejan Lazic / Liaison no. 3
––––––––––––––––––––––––––––––––––––––––

DR Peak RMS Duration Track
––––––––––––––––––––––––––––––––––––––––
DR13 -7.25 dB -24.43 dB 5:06 01-Sonata in D Allegro
DR13 -10.03 dB -27.79 dB 3:53 02-Sonata in D Andante
DR15 -7.41 dB -26.89 dB 9:07 03-Sonata in D Allegretto con variazioni
DR12 -7.75 dB -24.29 dB 1:20 04-Waltzes no. 1
DR13 -8.16 dB -27.53 dB 1:54 05-Waltzes no. 2
DR13 -7.36 dB -25.08 dB 1:25 06-Waltzes no. 3
DR14 -7.18 dB -25.15 dB 3:13 07-Waltzes no. 4
DR13 -6.05 dB -26.10 dB 2:19 08-Waltzes no. 5
DR13 -7.15 dB -23.63 dB 1:45 09-Fantasia in D major
DR13 -4.86 dB -22.45 dB 2:58 10-La Bohmer
DR14 -1.54 dB -22.09 dB 2:41 11-Holiday Diary no. 1
DR16 -6.20 dB -27.62 dB 6:36 12-Holiday Diary no. 2
DR13 -5.51 dB -21.60 dB 2:47 13-Holiday Diary no. 3
DR17 -11.09 dB -30.35 dB 5:26 14-Holiday Diary no. 4
DR13 -6.72 dB -23.44 dB 4:03 15-Sonata in E flat Allegro di molto
DR14 -9.34 dB -27.38 dB 4:48 16-Sonata in E flat Adagio assai
DR13 -7.69 dB -23.86 dB 2:35 17-Sonata in E flat Presto
DR16 -6.04 dB -27.80 dB 6:08 18-Night Piece
––––––––––––––––––––––––––––––––––––––––

Number of tracks: 18
Official DR value: DR14

Samplerate: 2822400 Hz / PCM Samplerate: 176400 Hz
Channels: 2
Bits per sample: 1
Bitrate: 5645 kbps
Codec: DST64


Thanks to the Original ripper!
Uncompressed SACD ISO size > 3,42 GB
>