Tags
Language
Tags

Depeche Mode - Black Celebration (1986/2013) [Official Digital Download]

Posted By: HDV
Depeche Mode - Black Celebration (1986/2013) [Official Digital Download]

Depeche Mode - Black Celebration (1986/2013)
FLAC (tracks) 24 bit/44,1 kHz | Time - 45:33 minutes | 543 MB
Studio Master, Official Digital Download | Artwork: Front cover

Depeche Mode’s "Black Celebration" is an emotionally intense, anthemic masterpiece that introduced the classics “Stripped”, “A Question Of Time” and “Black Celebration”. With their fifth studio album, the quartet explores a new sound, earning praise from publications including Rolling Stone, NME and many others. It is widely regarded as one of the most influential albums of the ‘80s. This pivotal recording is included on Spin’s “25 Greatest Albums of All Time”.

Whether the band felt it was simply the time to move on from its most explicit industrial-pop fusion days, or whether increased success and concurrently larger venues pushed the music into different avenues, Depeche Mode's fifth studio album, Black Celebration, saw the group embarking on a path that in many ways defined their sound to the present: emotionally extreme lyrics matched with amped-up tunes, as much anthemic rock as they are compelling dance, along with stark, low-key ballads. The slow, sneaky build of the opening title track, with a strange distorted vocal sample providing a curious opening hook, sets the tone as David Gahan sings of making it through "another black day" while powerful drums and echoing metallic pings carry the song. Black Celebration is actually heavier on the ballads throughout, many sung by Martin Gore – the most per album he has yet taken lead on – with notable dramatic beauties including "Sometimes," with its surprise gospel choir start and rough piano sonics, and the hyper-nihilistic "World Full of Nothing." The various singles from the album remain definite highlights, such as "A Question of Time," a brawling, aggressive number with a solid Gahan vocal, and the romantic/physical politics of "Stripped," featuring particularly sharp arrangements from Alan Wilder. However, with such comparatively lesser-known but equally impressive numbers as the quietly intense romance of "Here Is the House" to boast, Black Celebration is solid through and through.

Tracklist:

01 - Black Celebration
02 - Fly On The Windscreen
03 - A Question Of Lust
04 - Sometimes
05 - It Doesn't Matter Two
06 - A Question Of Time
07 - Stripped
08 - Here Is The House
09 - World Full Of Nothing
10 - Dressed In Black
11 - New Dress
12 - But Not Tonight

Analyzed: Depeche Mode / Black Celebration
––––––––––––––––––––––––––––––––––––––––

DR Peak RMS Duration Track
––––––––––––––––––––––––––––––––––––––––
DR13 -2.26 dB -18.91 dB 4:54 01-Black Celebration
DR13 -0.13 dB -16.89 dB 5:21 02-Fly On The Windscreen
DR12 -1.25 dB -17.03 dB 4:23 03-A Question Of Lust
DR12 -4.68 dB -21.44 dB 1:54 04-Sometimes
DR11 -4.27 dB -18.52 dB 2:52 05-It Doesn't Matter Two
DR12 -0.14 dB -14.57 dB 4:12 06-A Question Of Time
DR11 -1.17 dB -15.67 dB 4:13 07-Stripped
DR13 -0.85 dB -16.15 dB 4:20 08-Here Is The House
DR11 -3.80 dB -17.77 dB 2:49 09-World Full Of Nothing
DR11 -2.86 dB -16.58 dB 2:34 10-Dressed In Black
DR14 -0.84 dB -17.99 dB 3:44 11-New Dress
DR13 -2.77 dB -17.64 dB 4:17 12-But Not Tonight
––––––––––––––––––––––––––––––––––––––––

Number of tracks: 12
Official DR value: DR12

Samplerate: 44100 Hz
Channels: 2
Bits per sample: 24
Bitrate: 1485 kbps
Codec: FLAC
===============================================


Thanks to the Original customer!