Diana Krall - Love Scenes (1997/2014) Official Digital Download 24bit/96kHz]

Posted By: HDV
Diana Krall - Love Scenes (1997/2014) Official Digital Download 24bit/96kHz]

Diana Krall - Love Scenes (1997/2014)
FLAC (tracks) 24 bit/96 kHz | Time - 55:01 minutes | 1,13 GB
Studio Master, Official Digital Download | Artwork: Front cover

The fourth studio album from beloved jazz vocalist Diana Krall features a mix of timeless jazz classics played with a reverence for the classic age of swing songs. The album includes the hits Peel Me A Grape and They Can't Take That Away From Me, as well as gems written by songwriters such as Irving Berlin, Percy Mayfield, Bing Crosby and Peggy Lee.

Vocalist/pianist Diana Krall was a very hot property by the time this Impulse CD was released. Teamed in a trio with her regular guitarist Russell Malone and bassist Christian McBride, Krall here mostly emphasizes ballads having something to do with love. She is at her best on "I Don't Know Enough About You," "I Don't Stand a Ghost of a Chance With You," and "How Deep Is the Ocean." However, Krall's earlier Nat King Cole tribute had more variety in tempos and moods and is recommended first. A decent but not essential release.

Tracklist:

01 - All Or Nothing At All
02 - Peel Me A Grape
03 - I Don't Know Enough About You
04 - I Miss You So
05 - They Can't Take That Away From Me
06 - Lost Mind
07 - I Don't Stand A Ghost Of A Chance With You
08 - You're Getting To Be A Habit With Me
09 - Gentle Rain
10 - How Deep Is The Ocean (How High Is The Sky)
11 - My Love Is
12 - Garden In The Rain

Produced by Tommy LiPuma. Recorded and Mixed by Al Schmitt.
Recorded at Avatar Studios, New York. Mixed at Schnee Studio, North Hollywood, CA.

Analyzed: Diana Krall / Love Scenes
––––––––––––––––––––––––––––––––––––––––

DR Peak RMS Duration Track
––––––––––––––––––––––––––––––––––––––––
DR8 0.00 dB -10.19 dB 4:34 01-All Or Nothing At All
DR10 -0.05 dB -12.85 dB 5:52 02-Peel Me A Grape
DR10 -0.03 dB -12.32 dB 3:57 03-I Don't Know Enough About You
DR11 -0.16 dB -13.64 dB 4:43 04-I Miss You So
DR11 -0.14 dB -13.59 dB 5:39 05-They Can't Take That Away From Me
DR11 -0.04 dB -13.36 dB 3:46 06-Lost Mind
DR11 -0.16 dB -14.70 dB 6:14 07-I Don't Stand A Ghost Of A Chance With You
DR11 -0.08 dB -12.82 dB 2:15 08-You're Getting To Be A Habit With Me
DR13 -0.15 dB -16.19 dB 4:54 09-Gentle Rain
DR11 -0.06 dB -13.28 dB 4:45 10-How Deep Is The Ocean (How High Is The Sky)
DR10 -0.03 dB -13.99 dB 3:26 11-My Love Is
DR11 -0.08 dB -13.20 dB 4:56 12-Garden In The Rain
––––––––––––––––––––––––––––––––––––––––

Number of tracks: 12
Official DR value: DR11

Samplerate: 96000 Hz
Channels: 2
Bits per sample: 24
Bitrate: 2810 kbps
Codec: FLAC
================================================================================


Thanks to the Original customer!

More of 'Diana Krall' in Hi-Res