Tags
Language
Tags

Diana Panton - To Brazil with Love (2011/2019) [2xHD DSD128 + Hi-Res FLAC]

Posted By: HDV
Diana Panton - To Brazil with Love (2011/2019) [2xHD DSD128 + Hi-Res FLAC]

Diana Panton - To Brazil With Love (2011/2019) [2xHD]
DSD128 (.dsf) 1 bit/5,6 MHz | Time - 62:01 minutes | 2,83 GB
FLAC (tracks) 24-bit/192 kHz | Time - 62:01 minutes | 2,71 GB
Studio Master, Official Digital Download | Artwork: Digital booklet

Hearing Diana’s voice is like catching the sound of a thrush in the middle of a long Canadian winter, warm, sweet and pure. Her subtle near-whisper voice is a perfect fit for bossa-nova as she draws you elegantly and naturally into this sensual world. Each delightful track is an exquisitely manicured musical facet, set firmly in the Brazilian idiom and seamlessly sung in French and English by Panton. Her diaphanous vocal never insists and her high speed vibrato is like the beat of a hummingbird’s heart - natural, untainted and pure.

This JUNO nominated tribute to the samba and bossa nova traditions of Brazil incites the carefree aura of youth and freedom and is an exquisitely manicured music artifact, set firmly in the Brazilian idiom. Nominated also for the Canadian and an American Independent Music Award, the simple and pure quality of her music, blended together with a sweet and wistful voice is a very enticing combination. This is a perfect jewel of an album.


On her album “To Brazil With Love”, Diana Panton pays stylish tribute to the musical traditions of Brazil – the Samba and Bossa Nova. In addition to classics of the genre, she also takes a look at those musical offshoots that have influenced British pop, French chansons and jazz. Diana Panton interprets these evergreens in a way that is smooth and sensitive but never sentimental. She sings in English and French and creates a superb balance between charming French coquetry, Brazilian lightness and British understatement.

Tracklist:

01 - Samba Saravah
02 - This Happy Madness
03 - The Telephone Song (Telefone)
04 - Manha de Carnaval (Morning of the Carnival)
05 - So Nice (Summer Samba)
06 - Is It Really You?
07 - The Night Has a Thousand Eyes
08 - Dans mon ile
09 - Felicidade
10 - Tu sais je vais t'aimer
11 - Dreamer (Vivo Sonhando)
12 - And I Love Him
13 - Fais comme l'oiseau
14 - Que reste-t-il de nos amours?

Produced by Daian Panton. Co-Produced & Arranged by Don Thompson.
Recorded & Mixed by Chad Irschick in August 2010 at Inception Sound Studios, Toronto, Ontario, Canada.

Musicians:
Diana Panton - vocals
Maninho Costa - vocals, drums, percussion
Bill McBirnie - flute
Kiki Misumi - cello
Reg Schwager - guitar
Silas Silva - drums, percussion
Don Thompson - bass, piano, vibraphone

2xHD Mastering by René Laflamme.
Executive Produced by André Perry.

Analyzed: Diana Panton / Diana Panton: To Brazil with Love
––––––––––––––––––––––––––––––––––––––––

DR Peak RMS Duration Track
––––––––––––––––––––––––––––––––––––––––
DR9 -7.88 dB -19.42 dB 4:02 01-Samba Saravah
DR10 -8.25 dB -19.62 dB 4:05 02-This Happy Madness
DR10 -7.94 dB -19.48 dB 1:55 03-The Telephone Song (Telefone)
DR9 -8.14 dB -19.74 dB 5:24 04-Manha de Carnaval (Morning of the Carnival)
DR10 -8.09 dB -19.59 dB 3:29 05-So Nice (Summer Samba)
DR10 -7.99 dB -19.60 dB 4:23 06-Is It Really You?
DR9 -8.27 dB -19.43 dB 4:03 07-The Night Has a Thousand Eyes
DR9 -8.07 dB -19.06 dB 5:28 08-Dans mon ile
DR9 -8.02 dB -18.79 dB 4:44 09-Felicidade
DR9 -8.26 dB -20.10 dB 4:23 10-Tu sais je vais t'aimer
DR9 -7.95 dB -18.97 dB 3:43 11-Dreamer (Vivo Sonhando)
DR9 -9.37 dB -22.11 dB 4:45 12-And I Love Him
DR10 -7.71 dB -19.43 dB 4:41 13-Fais comme l'oiseau
DR9 -8.53 dB -20.08 dB 6:56 14-Que reste-t-il de nos amours?
––––––––––––––––––––––––––––––––––––––––

Number of tracks: 14
Official DR value: DR9

Samplerate: 5644800 Hz / PCM Samplerate: 176400 Hz
Channels: 2
Bits per sample: 1
Bitrate: 11290 kbps
Codec: DSD128
================================================================================


Thanks to the Original customer!