Dick Hyman - Thinking About Bix (2008) [Official Digital Download 24bit/96kHz] RE-UP

Posted By: HDV
Dick Hyman - Thinking About Bix (2008) [Official Digital Download 24bit/96kHz] RE-UP

Dick Hyman - Thinking About Bix (2008)
FLAC (tracks) 24 bit/96 kHz | Time - 67:06 minutes | 1,24 GB
Studio Master, Official Digital Download | Artwork: Digital Booklet

Dick Hyman, one of the most accomplished and versatile musicians alive, is especially known as an authority on early jazz. After a lifetime of playing and studying the music of Bix Beiderbecke, Hyman announced he’d like to record for RR a solo program of music associated with Bix, including all five original pieces Bix wrote for piano. (Most likely, these are a recorded first.) Hyman arranged other numbers Bix performed with various groups, and plays and improvises upon these in his distinctive, brilliant style. The title track is an infectious Hyman original reminiscent of the period. An attractive bonus is a piano four-hands performance with Hyman’s friend and stride authority, Mike Lipskin.

Long an admirer of cornetist/composer Bix Beiderbecke, Dick Hyman pays tribute to the gifted but short-lived jazz legend by interpreting the songs Bix recorded in a series of piano solos, mixing transcriptions of Beiderbecke's solos (and occasionally, others' as well) with his own improvisations. One exception is Hyman's original composition "Thinking About Bix," a warm, easygoing piece that captures the spirit of the era. The pianist's buoyant setting of "Singin' the Blues" and playful rendition of "Ostrich Walk" prove captivating, while his jaunty interpretation of "'Tain't So, Honey, 'Tain't So" is lots of fun. But the obvious high points of this CD, recorded not long before Hyman's 81st birthday, are Beiderbecke's rarely performed works for solo piano. The shimmering impressionist air of "Candlelights," the subtlety of "In the Dark," the Gershwin-flavored "In a Mist," the constantly shifting "Flashes," and the loping treatment of "Davenport Blues" all glisten in Hyman's gifted hands. Stride pianist Mike Lipskin (a protégé of stride pianist Willie "The Lion" Smith) joins Hyman in a lively duo rendition of "You Took Advantage of Me".

Tracklist:

01 - Thinking About Bix
02 - Singin' the Blues (Till My Daddy Comes Home)
03 - Ostrich Walk
04 - I'm Coming, Virginia
05 - Jazz Me Blues
06 - Candlelights
07 - 'Tain't So, Honey, 'Tain't So
08 - Since My Best Gal Turned Me Down
09 - In the Dark
10 - Clementine (From New Orleans)
11 - Lonely Melody
12 - In A Mist
13 - Sweet Sue (Just You)
14 - Wringin' and Twistin'
15 - Flashes
16 - Davenport Blues
17 - You Took Advantage of Me, with Mike Lipskin (piano four-hands)

Analyzed: Dick Hyman / Thinking about Bix
––––––––––––––––––––––––––––––––––––––––

DR Peak RMS Duration Track
––––––––––––––––––––––––––––––––––––––––
DR15 -3.45 dB -22.47 dB 4:00 01-Thinking About Bix
DR14 -7.36 dB -24.94 dB 3:23 02-Singin' the Blues (Till My Daddy Comes Home)
DR13 -5.86 dB -23.54 dB 2:57 03-Ostrich Walk
DR14 -5.81 dB -23.90 dB 5:24 04-I'm Coming, Virginia
DR14 -2.31 dB -20.83 dB 3:46 05-Jazz Me Blues
DR13 -7.57 dB -25.87 dB 4:35 06-Candlelights
DR14 -3.23 dB -22.95 dB 2:46 07-'Tain't So, Honey, 'Tain't So
DR14 -2.24 dB -20.35 dB 2:57 08-Since My Best Gal Turned Me Down
DR13 -5.97 dB -24.71 dB 6:04 09-In the Dark
DR15 -4.38 dB -23.35 dB 2:50 10-Clementine (From New Orleans)
DR14 -5.83 dB -23.66 dB 5:15 11-Lonely Melody
DR14 -5.40 dB -23.14 dB 4:05 12-In A Mist
DR13 -4.88 dB -25.02 dB 3:20 13-Sweet Sue (Just You)
DR15 -3.43 dB -22.86 dB 4:52 14-Wringin' and Twistin'
DR13 -3.17 dB -23.25 dB 2:57 15-Flashes
DR14 -5.19 dB -25.14 dB 5:25 16-Davenport Blues
DR13 -3.45 dB -20.46 dB 2:30 17-You Took Advantage of Me, with Mike Lipskin (piano four-hands)
––––––––––––––––––––––––––––––––––––––––

Number of tracks: 17
Official DR value: DR14

Samplerate: 96000 Hz
Channels: 2
Bits per sample: 24
Bitrate: 2581 kbps
Codec: FLAC
================================================================================


Thanks to the Original customer!