Subcategories

Die Toten Hosen - Laune der Natur with Learning English Lesson 2 (2017) [Official Digital Download]

Posted By: HDV
Die Toten Hosen - Laune der Natur with Learning English Lesson 2 (2017) [Official Digital Download]

Die Toten Hosen - Laune der Natur / with Learning English Lesson 2 (2017)
FLAC (tracks) 24-bit/44,1 kHz | Time - 114:47 minutes | 1,41 GB
Studio Master, Official Digital Download | Artwork: Front cover

"Laune der Natur" (The Mood of Nature) is the sixteenth studio album of the German band Die Toten Hosen. It was produced by Vincent Sorg and released as a single album as well as a Special edition - double album together with the album "Learning English Lesson Two". The supplemental album "Learning English Lesson Two" contains only English cover versions and is not available separately.


"Laune der Natur" contains 15 German-language titles dealing with the death, loss and transience of relationships. As with the previous studio album "Ballast of the Republic", part of the lyrics is a collaboration of Campino, the frontman of the band and the hip-hop musician Marteria. The musical title "Unter den Wolken" was presented to the album as the first single release in April 2017.

Tracklist

Disc 1 - Laune der Natur:

01 - Urknall
02 - Alles mit nach Hause
03 - Wannsee
04 - Unter den Wolken
05 - Pop & Politik
06 - Laune der Natur
07 - Energie
08 - Alles passiert
09 - Die Schöne und das Biest
10 - Eine Handvoll Erde
11 - Wie viele Jahre (Hasta La Muerte)
12 - ICE nach Düsseldorf
13 - Geisterhaus
14 - Lass los
15 - Kein Grund zur Traurigkeit

Disc 2 - Learning English Lesson Two:
01 - Step 1: Welcome to Learning English Lesson 2
02 - The Sound of the Suburbs (mit JC Carroll)
03 - Where Are They Now (mit Colin McFaull)
04 - California über alles (mit Jello Biafra)
05 - Step 2: Revolution
06 - Viva La Revolution (mit Monkey & Pete)
07 - Nobody's Hero (mit Jake Burns)
08 - Teenage Kicks (mit Damian O'Neill)
09 - Flying Saucer Attack! (mit Fay Fife & Eugene Reynolds)
10 - Step 3: How about a Knuckle-Sandwich?
11 - Where Have All the Boot Boys Gone? (mit Wayne Barrett)
12 - Sonic Reducer (mit Cheetah Chrome)
13 - Lookin' After No. 1 (mit Bob Geldof)
14 - The Jinx (mit Peter Bywaters)
15 - Your Generation (mit Tony James)
16 - Step 4: Family Plannings
17 - Darling, Let's Have Another Baby (mit Johnny Moped)
18 - Where's Captain Kirk? (mit Spizz)
19 - Harmony in My Head (mit Steve Diggle)
20 - This Perfect Day (mit Chris Bailey)
21 - Step 5: Sprechen Sie Deutsch?
22 - Wunderbar (mit Ed Ten Pole Tudor)
23 - I'm an Upstart (mit Thomas "Mensi" Mensforth)
24 - (Get a) Grip (on Yourself) [mit Hugh Cornwell]
25 - Fight to Be Yourself (mit "Mad" Phil Thompson)
26 - Staring at the Rude Boys (mit John "Segs" Jennings)
27 - Janet and John Say Goodbye

Analyzed: Die Toten Hosen / Laune der Natur
––––––––––––––––––––––––––––––––––––––––

DR Peak RMS Duration Track
––––––––––––––––––––––––––––––––––––––––
DR4 -0.10 dB -4.75 dB 2:29 01-Urknall
DR5 -0.10 dB -6.30 dB 3:19 02-Alles mit nach Hause
DR5 -0.10 dB -7.49 dB 3:04 03-Wannsee
DR5 -0.10 dB -6.75 dB 3:35 04-Unter den Wolken
DR5 -0.10 dB -6.58 dB 2:54 05-Pop & Politik
DR5 -0.10 dB -6.66 dB 3:26 06-Laune der Natur
DR4 -0.10 dB -6.15 dB 2:47 07-Energie
DR4 -0.17 dB -7.73 dB 4:07 08-Alles passiert
DR5 -0.10 dB -6.92 dB 3:31 09-Die Schöne und das Biest
DR7 -0.10 dB -10.30 dB 4:40 10-Eine Handvoll Erde
DR5 -0.10 dB -5.83 dB 3:14 11-Wie viele Jahre (Hasta La Muerte)
DR5 -0.10 dB -6.34 dB 2:10 12-ICE nach Düsseldorf
DR5 -0.10 dB -8.44 dB 3:49 13-Geisterhaus
DR5 -0.10 dB -6.40 dB 3:28 14-Lass los
DR9 -0.12 dB -11.83 dB 4:00 15-Kein Grund zur Traurigkeit
––––––––––––––––––––––––––––––––––––––––

Number of tracks: 15
Official DR value: DR5

Samplerate: 44100 Hz
Channels: 2
Bits per sample: 24
Bitrate: 1540 kbps
Codec: FLAC
================================================================================

Analyzed: Die Toten Hosen / Learning English, Lesson Two
––––––––––––––––––––––––––––––––––––––––

DR Peak RMS Duration Track
––––––––––––––––––––––––––––––––––––––––
DR15 -1.59 dB -19.62 dB 0:41 01-Step 1: Welcome to Learning English Lesson 2
DR5 -0.51 dB -6.30 dB 3:16 02-The Sound of the Suburbs (mit JC Carroll)
DR4 -0.50 dB -5.73 dB 2:56 03-Where Are They Now (mit Colin McFaull)
DR5 -0.44 dB -6.89 dB 3:21 04-California über alles (mit Jello Biafra)
DR13 -0.99 dB -19.68 dB 0:21 05-Step 2: Revolution
DR4 -0.51 dB -6.50 dB 2:54 06-Viva La Revolution (mit Monkey & Pete)
DR5 -0.51 dB -6.08 dB 3:57 07-Nobody's Hero (mit Jake Burns)
DR5 -0.51 dB -5.96 dB 2:19 08-Teenage Kicks (mit Damian O'Neill)
DR4 -0.36 dB -5.75 dB 2:49 09-Flying Saucer Attack! (mit Fay Fife & Eugene Reynolds)
DR15 -0.54 dB -18.39 dB 0:30 10-Step 3: How about a Knuckle-Sandwich?
DR4 -0.51 dB -5.84 dB 3:06 11-Where Have All the Boot Boys Gone? (mit Wayne Barrett)
DR5 -0.41 dB -6.37 dB 2:41 12-Sonic Reducer (mit Cheetah Chrome)
DR5 -0.45 dB -5.94 dB 3:04 13-Lookin' After No. 1 (mit Bob Geldof)
DR5 -0.51 dB -5.83 dB 2:58 14-The Jinx (mit Peter Bywaters)
DR4 -0.50 dB -5.76 dB 3:11 15-Your Generation (mit Tony James)
DR16 -1.21 dB -22.39 dB 0:24 16-Step 4: Family Plannings
DR4 -0.51 dB -6.24 dB 2:59 17-Darling, Let's Have Another Baby (mit Johnny Moped)
DR5 -0.51 dB -6.54 dB 2:18 18-Where's Captain Kirk? (mit Spizz)
DR5 -0.51 dB -6.47 dB 3:08 19-Harmony in My Head (mit Steve Diggle)
DR5 -0.51 dB -5.98 dB 2:03 20-This Perfect Day (mit Chris Bailey)
DR15 -1.01 dB -20.48 dB 0:30 21-Step 5: Sprechen Sie Deutsch?
DR5 -0.51 dB -6.58 dB 2:45 22-Wunderbar (mit Ed Ten Pole Tudor)
DR5 -0.51 dB -6.10 dB 2:17 23-I'm an Upstart (mit Thomas "Mensi" Mensforth)
DR5 -0.51 dB -6.31 dB 2:57 24-(Get a) Grip (on Yourself) [mit Hugh Cornwell]
DR4 -0.51 dB -6.92 dB 2:40 25-Fight to Be Yourself (mit "Mad" Phil Thompson)
DR5 -0.51 dB -6.31 dB 3:16 26-Staring at the Rude Boys (mit John "Segs" Jennings)
DR13 -0.11 dB -16.10 dB 0:55 27-Janet and John Say Goodbye
––––––––––––––––––––––––––––––––––––––––

Number of tracks: 27
Official DR value: DR7

Samplerate: 44100 Hz
Channels: 2
Bits per sample: 24
Bitrate: 1471 kbps
Codec: FLAC
================================================================================


Thanks to the Original customer!