Tags
Language
Tags

Dirty Projectors - 5EPs (2020) [Official Digital Download 24/96]

Posted By: delpotro
Dirty Projectors - 5EPs (2020) [Official Digital Download 24/96]

Dirty Projectors - 5EPs (2020)
FLAC (tracks) 24-bit/96 kHz | Front Cover | Time - 55:13 minutes | 1,06 GB
Art Pop, Indie Pop, Chamber Pop | Label: Domino, Official Digital Download

Never one for easy categorisation, the on-going adventures of David Longstreth’s Dirty Projectors project are especially genre-agnostic on the 5 EPs released throughout 2020. The neatly-titled 5EPs collates these songs into a mammoth compilation. Each set of songs sees a different band-member taking over lead vocal duties, and indeed the flavours of these tracks stretch the breadth and width of the musical spectrum. The likes of ‘Self Design’ and ‘Empty Vessel’ deal in funk and house-inspired rhythms, while ‘Moon, If Ever’ and ‘I Get Carried Away’ are staunchly minimal in instrumentation, but undeniably 1960s pop in melodic sophistication.

Tracklist:
1. On The Breeze (02:09)
2. Overlord (02:43)
3. Search For Life (02:49)
4. Guarding The Baby (02:41)
5. Inner World (02:23)
6. Lose Your Love (02:49)
7. Self Design (03:07)
8. Empty Vessel (02:19)
9. Holy Mackerel (04:01)
10. I Get Carried Away (02:11)
11. You Create Yourself (02:49)
12. Moon, If Ever (02:20)
13. Eyes On The Road (02:49)
14. There I Said It (01:21)
15. Bird's Eye (04:41)
16. Now I Know (04:04)
17. Por Qué No (01:43)
18. Searching Spirit (02:34)
19. No Studying (02:29)
20. My Possession (03:11)

foobar2000 1.4.1 / Dynamic Range Meter 1.1.1
log date: 2020-12-31 17:00:54

––––––––––––––––––––––––––––––––––––––––
Analyzed: Dirty Projectors / 5EPs
––––––––––––––––––––––––––––––––––––––––

DR Peak RMS Duration Track
––––––––––––––––––––––––––––––––––––––––
DR7 -0.60 dB -9.88 dB 2:09 01-On the Breeze
DR7 -0.60 dB -9.23 dB 2:43 02-Overlord
DR6 -0.60 dB -8.84 dB 2:49 03-Search for Life
DR8 -0.60 dB -11.93 dB 2:41 04-Guarding the Baby
DR6 -0.80 dB -8.58 dB 2:23 01-Inner World
DR6 -0.80 dB -9.43 dB 2:49 02-Lose Your Love
DR5 -0.42 dB -6.69 dB 3:07 03-Self Design
DR5 -0.80 dB -7.65 dB 2:19 04-Empty Vessel
DR8 -0.60 dB -9.82 dB 4:01 01-Holy Mackerel
DR9 -0.04 dB -10.93 dB 2:11 02-I Get Carried Away
DR8 -0.60 dB -10.70 dB 2:49 03-You Create Yourself
DR9 -0.04 dB -10.93 dB 2:20 04-Moon, if Ever
DR7 -0.60 dB -9.79 dB 2:49 01-Eyes on the Road
DR5 0.00 dB -8.10 dB 1:21 02-There I Said It
DR5 0.00 dB -7.86 dB 4:41 03-Bird’s Eye
DR7 -0.60 dB -10.98 dB 4:04 04-Now I Know
DR5 -0.70 dB -6.75 dB 1:43 01-Por Qué No
DR5 -0.04 dB -7.04 dB 2:34 02-Searching Spirit
DR5 -0.70 dB -7.66 dB 2:29 03-No Studying
DR6 -0.70 dB -8.84 dB 3:11 04-My Possession
––––––––––––––––––––––––––––––––––––––––

Number of tracks: 20
Official DR value: DR6

Samplerate: 96000 Hz
Channels: 2
Bits per sample: 24
Bitrate: 2923 kbps
Codec: FLAC
================================================================================


Thanks to the Original customer!