Donald Byrd - At The Half Note Cafe, Vol. 1 & 2 (1960/2015) [Official Digital Download 24-bit/192kHz]

Posted By: HDV
Donald Byrd - At The Half Note Cafe, Vol. 1 & 2 (1960/2015) [Official Digital Download 24-bit/192kHz]

Donald Byrd - At The Half Note Cafe, Vol. 1 & 2 (1960/2015)
FLAC (tracks) 24-bit/192 kHz | Time - 82:16 minutes | 3,71 GB
FLAC (tracks) 24-bit/96 kHz | Time - 82:16 minutes | 1,78 GB
Studio Master, Official Digital Download | Artwork: Front cover

At the Half Note Cafe is a live album by American trumpeter Donald Byrd recorded in 1960 at the Half Note in Manhattan and released on the Blue Note label originally as two single LP issues (BLP 4060 and BLP 4061). he Allmusic review by Thom Jurek awarded the album 4½ stars and stated "This was a hot quintet, one that not only swung hard, but possessed a deep lyricism and an astonishing sense of timing, and one need only this set by them to feel the full measure of their worth".

Tracklist

VOLUME 1:
01 - Intro/My Girl Shirl
02 - Soulful Kiddy
03 - A Portrait Of Jennie
04 - Cecile
05 - Theme: Pure D. Funk

Analyzed: Donald Byrd / At The Half Note Cafe, Volume 1
––––––––––––––––––––––––––––––––––––––––

DR Peak RMS Duration Track
––––––––––––––––––––––––––––––––––––––––
DR16 0.00 dB -19.68 dB 11:48 01-Intro/My Girl Shirl
DR16 0.00 dB -20.28 dB 10:02 02-Soulful Kiddy
DR17 -2.40 dB -24.68 dB 7:03 03-A Portrait Of Jennie
DR16 0.00 dB -20.85 dB 12:54 04-Cecile
DR15 -1.85 dB -21.40 dB 1:52 05-Theme: Pure D. Funk
––––––––––––––––––––––––––––––––––––––––

Number of tracks: 5
Official DR value: DR16

Samplerate: 192000 Hz
Channels: 2
Bits per sample: 24
Bitrate: 6149 kbps
Codec: FLAC
================================================================================



VOLUME 2:
01 - Jeannine
02 - Pure D. Funk
03 - Kimyas
04 - When Sonny Gets Blue

Analyzed: Donald Byrd / At The Half Note Cafe, Volume 2
––––––––––––––––––––––––––––––––––––––––

DR Peak RMS Duration Track
––––––––––––––––––––––––––––––––––––––––
DR16 0.00 dB -20.51 dB 12:50 01-Jeannine
DR15 0.00 dB -20.51 dB 6:30 02-Pure D. Funk
DR16 0.00 dB -19.97 dB 12:00 03-Kimyas
DR16 -1.80 dB -22.02 dB 6:17 04-When Sonny Gets Blue
––––––––––––––––––––––––––––––––––––––––

Number of tracks: 4
Official DR value: DR16

Samplerate: 192000 Hz
Channels: 2
Bits per sample: 24
Bitrate: 6088 kbps
Codec: FLAC
================================================================================


Recorded at the Half Note Cafe, NY on November 11, 1960.

Musicians:
Donald Byrd - trumpet
Pepper Adams - baritone saxophone
Duke Pearson - piano
Laymon Jackson - bass
Lex Humphries - drums

Thanks to the Original customer!