Tags
Language
Tags

Donald Fagen - The Nightfly (1982) [Japanese SACD 2011] MCH PS3 ISO + DSD64 + Hi-Res FLAC

Posted By: HDAtall
Donald Fagen - The Nightfly (1982) [Japanese SACD 2011] MCH PS3 ISO + DSD64 + Hi-Res FLAC

Donald Fagen - The Nightfly (1982) [Japan 2011]
PS3 Rip | SACD ISO | DST64 2.0 & 5.1 > 1-bit/2.8224 MHz | 39:03 min | Scans included | 2,64 GB
or DSD64 Stereo (from SACD-ISO to Tracks.dsf) > 1-bit/2.8224 MHz | Full Scans included | 1,04 GB
or FLAC 2.0 (carefully converted & encoded to tracks) 24bit/44,1 kHz | Full Scans included | 472 MB
2002 DSD Remaster | Features Stereo and Multichannel Surround Sound | Warner Music Japan # WPCR-14170

The Nightfly is the debut solo studio album by American singer-songwriter Donald Fagen. Fagen was previously best known for his work in the group Steely Dan, with whom he enjoyed a successful career in the 1970s. The band separated in 1981, leading Fagen to pursue a solo career. Although The Nightfly includes a number of production staff and musicians who had played on Steely Dan records, it was Fagen's first release without longtime collaborator Walter Becker.

A portrait of the artist as a young man, The Nightfly is a wonderfully evocative reminiscence of Kennedy-era American life; in the liner notes, Donald Fagen describes the songs as representative of the kinds of fantasies he entertained as an adolescent during the late '50s/early '60s, and he conveys the tenor of the times with some of his most personal and least obtuse material to date. Continuing in the smooth pop-jazz mode favored on the final Steely Dan records, The Nightfly is lush and shimmering, produced with cinematic flair by Gary Katz; romanticized but never sentimental, the songs are slices of suburbanite soap opera, tales of space-age hopes (the hit "I.G.Y.") and Cold War fears (the wonderful "The New Frontier," a memoir of fallout-shelter love) crafted with impeccable style and sophistication.

Tracklist:

01. I.G.Y.
02. Green Flower Street
03. Ruby Baby
04. Maxine
05. New Frontier
06. The Nightfly
07. The Goodbye Look
08. Walk Between Raindrops

Recorded & Mixed entirely on 3M digital 32 track and 4 track machines at Soundworks Digital Audio/Video

foobar2000 1.6.7 / Dynamic Range Meter 1.1.1

––––––––––––––––––––––––––––––––––––––––
Analyzed: DONALD FAGEN / THE NIGHTFLY
––––––––––––––––––––––––––––––––––––––––

DR Peak RMS Duration Track
––––––––––––––––––––––––––––––––––––––––
DR16 -5.88 dB -26.75 dB 6:05 01-I.G.Y.
DR15 -5.32 dB -27.12 dB 3:50 02-GREEN FLOWER STREET
DR15 -5.58 dB -26.99 dB 5:39 03-RUBY RABY
DR14 -5.82 dB -26.14 dB 3:50 04-MAXINE
DR15 -5.74 dB -26.94 dB 6:22 05-NEW FRONTIER
DR16 -5.82 dB -26.15 dB 5:46 06-THE NIGHTFLY
DR17 -5.36 dB -28.06 dB 4:51 07-THE GOODBYE LOOK
DR16 -5.40 dB -27.35 dB 2:41 08-WALK BETWEEN RAINDROPS
––––––––––––––––––––––––––––––––––––––––

Number of tracks: 8
Official DR value: DR16

Samplerate: 2822400 Hz / PCM Samplerate: 176400 Hz
Channels: 6
Bits per sample: 1
Bitrate: 16934 kbps
Codec: DST64
================================================================================

––––––––––––––––––––––––––––––––––––––––
Analyzed: DONALD FAGEN / THE NIGHTFLY
––––––––––––––––––––––––––––––––––––––––

DR Peak RMS Duration Track
––––––––––––––––––––––––––––––––––––––––
DR15 -5.62 dB -22.43 dB 6:05 01-I.G.Y.
DR16 -5.48 dB -24.54 dB 3:50 02-GREEN FLOWER STREET
DR15 -5.94 dB -23.74 dB 5:39 03-RUBY RABY
DR14 -5.89 dB -22.77 dB 3:50 04-MAXINE
DR15 -6.02 dB -23.63 dB 6:22 05-NEW FRONTIER
DR15 -5.93 dB -22.68 dB 5:46 06-THE NIGHTFLY
DR15 -5.53 dB -23.13 dB 4:51 07-THE GOODBYE LOOK
DR16 -5.72 dB -24.16 dB 2:41 08-WALK BETWEEN RAINDROPS
––––––––––––––––––––––––––––––––––––––––

Number of tracks: 8
Official DR value: DR15

Samplerate: 2822400 Hz / PCM Samplerate: 176400 Hz
Channels: 2
Bits per sample: 1
Bitrate: 5645 kbps
Codec: DST64


Thanks to bambasm!
Uncompressed SACD ISO size > 2,48 GB
>