Donny Hathaway - Everything Is Everything (1970/2012) [Official Digital Download 24bit/192kHz] RE-UP

Posted By: HDV
Donny Hathaway - Everything Is Everything (1970/2012) [Official Digital Download 24bit/192kHz] RE-UP

Donny Hathaway - Everything Is Everything (1970/2012)
FLAC (tracks) 24 bit/192 kHz | Time - 41:19 minutes | 1,71 GB
Studio Master, Official Digital Download | Artwork: Front cover

Produced by Ric Powell, Everything Is Everything has been dubbed by critics as one of Hathaway’s finest releases. The album, another facet in Hathaway’s undeniable musicianship, finds the emotive vocalist covering tunes like Ray Charles' “I Believe to My Soul” and Nina Simone’s “To Be Young, Gifted and Black.” His swinging single “The Ghetto” charted on Billboard’s Hot 100 and top R&B singles. With breathtaking sound quality, the album is a fully displays of Hathaway’s musical artistry.

Already a respected arranger and pianist who'd contributed to dozens of records (by artists ranging from the Impressions to Carla Thomas to Woody Herman), with this debut LP Donny Hathaway revealed yet another facet of his genius – his smoky, pleading voice, one of the best to ever grace a soul record. Everything Is Everything sounded like nothing before it, based in smooth uptown soul but boasting a set of excellent, open-ended arrangements gained from Hathaway's background in classical and gospel music. (Before going to Howard University in 1964, his knowledge of popular music was practically non-existent.) After gaining a contract with Atco through King Curtis, Hathaway wrote and recorded during 1969 and 1970 with friends including drummer Ric Powell and guitarist Phil Upchurch, both of whom lent a grooving feel to the album that Hathaway may not have been able to summon on his own (check out Upchurch's unforgettable bassline on the opener, "Voices Inside (Everything Is Everything)"). All of the musical brilliance on display, though, is merely the framework for Hathaway's rich, emotive voice, testifying to the power of love and religion with few, if any, concessions to pop music. Like none other, he gets to the raw, churchy emotion underlying Ray Charles' "I Believe to My Soul" and Nina Simone's "To Be Young, Gifted and Black," the former with a call-and-response horn chart and his own glorious vocal, the latter with his own organ lines. "Thank You Master (For My Soul)" brings the Stax horns onto sanctified ground, while Hathaway praises God and sneaks in an excellent piano solo. Everything Is Everything was one of the first soul records to comment directly on an unstable period; "Tryin' Times" speaks to the importance of peace and community with an earthy groove, while the most familiar track here, a swinging jam known as "The Ghetto," places listeners right in the middle of urban America. Donny Hathaway's debut introduced a brilliant talent into the world of soul, one who promised to take R&B farther than it had been taken since Ray Charles debuted on Atlantic.

Tracklist:

01 - Voices Inside (Everything Is Everything)
02 - Je Vous Aime (I Love You)
03 - I Believe to My Soul
04 - Misty
05 - Sugar Lee
06 - Tryin' Times
07 - Thank You Master (For My Soul)
08 - The Ghetto
09 - To Be Young, Gifted and Black

Analyzed: Donny Hathaway / Everything Is Everything
––––––––––––––––––––––––––––––––––––––––

DR Peak RMS Duration Track
––––––––––––––––––––––––––––––––––––––––
DR11 -1.16 dB -14.91 dB 3:29 01-Voices Inside (Everything Is Everything)
DR11 -2.91 dB -18.48 dB 3:32 02-Je Vous Aime (I Love You)
DR10 -2.90 dB -16.57 dB 3:51 03-I Believe to My Soul
DR11 -2.79 dB -16.78 dB 3:38 04-Misty
DR10 0.00 dB -14.13 dB 4:05 05-Sugar Lee
DR10 -2.42 dB -15.42 dB 3:17 06-Tryin' Times
DR10 -1.79 dB -15.39 dB 5:51 07-Thank You Master (For My Soul)
DR9 -1.11 dB -13.08 dB 6:53 08-The Ghetto
DR10 -1.44 dB -16.41 dB 6:44 09-To Be Young, Gifted and Black
––––––––––––––––––––––––––––––––––––––––

Number of tracks: 9
Official DR value: DR10

Samplerate: 192000 Hz
Channels: 2
Bits per sample: 24
Bitrate: 5540 kbps
Codec: FLAC
================================================================================


Thanks to the Original customer!

Roberta Flack & Donny Hathaway (1971/2012) [24/192]