Dr. John - The ATCO Studio Albums Collection (2014) [Official Digital Download 24bit/192kHz]

Posted By: HDV
Dr. John - The ATCO Studio Albums Collection (2014) [Official Digital Download 24bit/192kHz]

Dr. John - The ATCO Studio Albums Collection 1968-1974 (2014)
7 Albums | FLAC (tracks) 24 bit/192 kHz | Time - 260:50 minutes | 10,6 GB
7 Albums | FLAC (tracks) 24 bit/96 kHz | Time - 260:50 minutes | 5,81 GB
Studio Master, Official Digital Download | Artwork: Front cover(s)

Dr. John is a six-time Grammy Award-winning musician and Rock & Roll Hall of Fame inductee. Known throughout the world as the embodiment of New Orleans’ musical legacy, Dr. John is a true icon in American culture… New Orleans pianist and singer whose blend of snaky rhythms, Crescent City funk, and voodoo flair made him one of the city's prime musical ambassadors. Enjoy now seven of his best albums remastered in High Definition!


Dr. John - The ATCO Studio Albums Collection (2014) [Official Digital Download 24bit/192kHz]

Dr. John - Gris-Gris (1968/2014)
FLAC (tracks) 24 bit/192 kHz | Time - 33:27 minutes | 1,21 GB
FLAC (tracks) 24 bit/96 kHz | Time - 33:27 minutes | 737 MB
Studio Master, Official Digital Download | Artwork: Front cover

Dr. John's Gris-Gris is among the most enduring recordings of the psychedelic era; it sounds as mysterious and spooky in the 21st century as it did in 1968. It is the album where Mac Rebennack established a stage identity that has served him well. A respected studio ace in his native New Orleans, Rebennack was scuffling in L.A. Gris-Gris was his concept, an album that wove various threads of New Orleans music together behind the character of "Dr. John," a real voodoo root doctor from the 19th century. Harold Batiste, another ex-pat New Orleanian and respected arranger in Hollywood, scored him some free studio time left over from a Sonny & Cher session. They assembled a crack band of NOLA exiles and session players including saxophonist Plas Johnson, singers Jessie Hill and Shirley Goodman, and guitarist/mandolinist Richard "Didimus" Washington. Almost everyone played percussion. Gris-Gris sounds like a post-midnight ceremony recorded in the bayou swamp instead of L.A.'s Gold Star Studio where Phil Spector cut hits. The atmosphere is thick, smoky, serpentine, foreboding. Rebennack inhabits his character fully, delivering Creole French and slang English effortlessly in the grain of his half-spoken, half-sung voice. He is high priest and trickster, capable of blessing, cursing, and conning. On the opening incantation "Gris-Gris Gumbo Ya Ya," Dr. John introduces himself as the "night tripper" and boasts of his medicinal abilities accompanied by wafting reverbed mandolins, hand drums, a bubbling bassline, blues harmonica, skeletal electric guitar, and a swaying backing chorus that blurs the line between gospel and soul. On "Danse Kalinda Boom," a calliope-sounding organ, Middle Eastern flute, Spanish-tinged guitars, bells, claves, congas, and drums fuel a wordless chorus in four-part chant harmony as a drum orgy evokes ceremonial rites. The sound of NOLA R&B comes to the fore in the killer soul groove of the breezy "Mama Roux." "Croker Courtboullion" is an exercise in vanguard jazz. Spectral voices, electric guitars, animal cries, flute, and moody saxophone solos and percussion drift in and out of the spacy mix. The set's masterpiece is saved for last, the nearly nearly eight-minute trance vamp in "I Walk on Gilded Splinters" (covered by everyone from Humble Pie, Cher, and Johnny Jenkins to Paul Weller and Papa Mali). Dr. John is brazen about the power of his spells in a slippery, evil-sounding boast. Congas, tom-toms, snaky guitar, and harmonica underscore his juju, while a backing chorus affirms his power like mambo priestesses in unison. A ghostly baritone saxophone wafts through the turnarounds. Droning blues, steamy funk, and loopy R&B are inseparably entwined in its groove. Remarkably, though rightfully considered a psychedelic masterpiece, there is little rock music on Gris-Gris. Its real achievement – besides being a classic collection of startlingly deep tunes – is that it brought New Orleans' cultural iconographies and musical traits to the attention of an emergent rock audience.

Tracklist:

01 - Gris-Gris Gumbo Ya Ya
02 - Danse Kalinda Ba Doom
03 - Mama Roux
04 - Danse Fambeaux
05 - Croker Courtbullion
06 - Jump Sturdy
07 - I Walk On Guilded Splinters

Analyzed: Dr. John / Gris-Gris
––––––––––––––––––––––––––––––––––––––––

DR Peak RMS Duration Track
––––––––––––––––––––––––––––––––––––––––
DR12 -0.20 dB -15.71 dB 5:38 01-Gris-Gris Gumbo Ya Ya
DR13 -0.10 dB -15.39 dB 3:46 02-Danse Kalinda Ba Doom
DR12 -0.10 dB -14.21 dB 3:01 03-Mama Roux
DR14 -0.10 dB -17.53 dB 4:58 04-Danse Fambeaux
DR12 -0.44 dB -14.80 dB 6:01 05-Croker Courtbullion
DR13 -0.10 dB -13.91 dB 2:23 06-Jump Sturdy
DR14 -0.10 dB -16.58 dB 7:40 07-I Walk On Guilded Splinters
––––––––––––––––––––––––––––––––––––––––

Number of tracks: 7
Official DR value: DR13

Samplerate: 192000 Hz
Channels: 2
Bits per sample: 24
Bitrate: 4759 kbps
Codec: FLAC
================================================================================



Dr. John - The ATCO Studio Albums Collection (2014) [Official Digital Download 24bit/192kHz]

Dr. John - Babylon (1969/2014)
FLAC (tracks) 24 bit/192 kHz | Time - 37:19 minutes | 1,34 GB
FLAC (tracks) 24 bit/96 kHz | Time - 37:19 minutes | 825 MB
Studio Master, Official Digital Download | Artwork: Front cover

Dr. John's ambition remained undiminished on his second solo album, Babylon, released shortly after the groundbreaking voodoo-psychedelia-New Orleans R&B fusion of his debut, Gris-Gris. The results, however, were not nearly as consistent or impressive. Coolly received by critics, the album nonetheless is deserving of attention, though it pales a bit in comparison with Gris-Gris. The production is sparser and more reliant on female backup vocals than his debut. Dr. John remains intent on fusing voodoo and R&B, but the mood is oddly bleak and despairing, in comparison with the wild Mardi Gras-gone-amok tone of his first LP. The hushed, damned atmosphere and after-hours R&B sound a bit like Van Morrison on a bummer trip at times, as peculiar as that might seem. "The Patriotic Flag-Waiver" (sic), in keeping with the mood of the late '60s, damns social ills and hypocrisy of all sorts. An FM underground radio favorite at the time, its ambitious structure remains admirable, though its musical imperfections haven't worn well. To a degree, you could say the same about the album as a whole. But it has enough of an eerie fascination to merit investigation.

Tracklist:

01 - Babylon
02 - Glowin'
03 - Black Widow Spider
04 - Barefoot Lady
05 - Twilight Zone
06 - The Patriotic Flag Waver
07 - The Lonesome Guitar Strangler

Analyzed: Dr. John / Babylon
––––––––––––––––––––––––––––––––––––––––

DR Peak RMS Duration Track
––––––––––––––––––––––––––––––––––––––––
DR12 -1.45 dB -15.91 dB 5:24 08-Babylon
DR11 -2.66 dB -16.51 dB 5:40 09-Glowin'
DR12 -1.92 dB -15.10 dB 4:15 10-Black Widow Spider
DR12 -2.38 dB -16.71 dB 3:11 11-Barefoot Lady
DR12 -0.97 dB -17.28 dB 8:17 12-Twilight Zone
DR13 -0.10 dB -15.79 dB 4:57 13-The Patriotic Flag Waver
DR13 -1.67 dB -17.93 dB 5:36 14-The Lonesome Guitar Strangler
––––––––––––––––––––––––––––––––––––––––

Number of tracks: 7
Official DR value: DR12

Samplerate: 192000 Hz
Channels: 2
Bits per sample: 24
Bitrate: 4931 kbps
Codec: FLAC
================================================================================



Dr. John - The ATCO Studio Albums Collection (2014) [Official Digital Download 24bit/192kHz]

Dr. John - Remedies (1970/2014)
FLAC (tracks) 24 bit/192 kHz | Time - 40:51 minutes | 1,81 GB
FLAC (tracks) 24 bit/96 kHz | Time - 40:51 minutes | 990 MB
Studio Master, Official Digital Download | Artwork: Front cover

Remedies is not rock and roll, it is something nearly otherworldly, and almost beyond comprehension. While it includes such standout Dr. John tracks as "Wash Mama Wash" and "Loop Garoo," it also includes "Angola Anthem," which is murky, mysterious and downright evil-sounding. Much of this very long cut is lost without headphones, for the music floats about in a smoky fog while Dr. John and his backup singers chant, moan, and cry out. Progressive radio loved this stuff, and it still sounds great during those late-night flirtations with the dark side of the psyche. Remedies must be heard to be believed.

Tracklist:

01 - Loop Garoo
02 - What Comes Around (Goes Around)
03 - Wash, Mama Wash
04 - Chippy, Chippy
05 - Mardi Gras Day
06 - Angola Anthem

Analyzed: Dr. John / Remedies
––––––––––––––––––––––––––––––––––––––––

DR Peak RMS Duration Track
––––––––––––––––––––––––––––––––––––––––
DR12 -3.28 dB -17.78 dB 4:42 15-Loop Garoo
DR11 -2.27 dB -17.26 dB 2:58 16-What Comes Around (Goes Around)
DR12 -3.65 dB -18.77 dB 3:43 17-Wash, Mama Wash
DR12 -2.24 dB -17.06 dB 3:34 18-Chippy, Chippy
DR12 -4.43 dB -19.20 dB 8:17 19-Mardi Gras Day
DR14 -0.03 dB -18.08 dB 17:37 20-Angola Anthem
––––––––––––––––––––––––––––––––––––––––

Number of tracks: 6
Official DR value: DR12

Samplerate: 192000 Hz
Channels: 2
Bits per sample: 24
Bitrate: 6016 kbps
Codec: FLAC
================================================================================



Dr. John - The ATCO Studio Albums Collection (2014) [Official Digital Download 24bit/192kHz]

Dr. John - The Sun Moon & Herbs (1971/2014)
FLAC (tracks) 24 bit/192 kHz | Time - 39:05 minutes | 1,61 GB
FLAC (tracks) 24 bit/96 kHz | Time - 39:05 minutes | 879 MB
Studio Master, Official Digital Download | Artwork: Front cover

Originally intended as a triple album, The Sun, Moon & Herbs was chopped up, whittled down and re-assembled into this single-disc release, and while Dr. John never liked this version much, perhaps the single disc is testament to the "less is more" theory. The seven cuts are all quite lengthy and the spells Dr. John and his consorts weave are dark and swampy. "Black John the Conqueror" comes from old Cajun folklore which the good Dr. has modernized and given a beat. The swampy "Craney Crow" is the younger sibling of his earlier "Walk On Guilded Splinters" and has a similar effect on the listener. "Pots on Fiyo (Fils Gumbo)" combines Latin American rhythms with lots of Cajun chants and spells. The vocals are nearly incomprehensible and actually serve as another instrument in the mix. "Zu Zu Mamou" is so thick that you can almost cut the music with a knife. Here, the atmosphere takes on a whole other meaning altogether. The Sun, Moon & Herbs is best listened to on a hot, muggy night with the sound of thunder rumbling off in the distance like jungle drums. Dr. John was definitely onto something here, but just what is left up to the listener.

Tracklist:

01 - Black John The Conqueror
02 - Where Ya At Mule
03 - Craney Crow
04 - Familiar Reality-Opening
05 - Pots on Fiyo (File Gumbo)/Who I Got To Fall On (If The Pot Get Heavy)
06 - Zu Zu Mamou
07 - Familiar Reality-Reprise

Analyzed: Dr. John / The Sun, Moon & Herbs
––––––––––––––––––––––––––––––––––––––––

DR Peak RMS Duration Track
––––––––––––––––––––––––––––––––––––––––
DR13 -0.11 dB -16.25 dB 6:20 21-Black John The Conqueror
DR12 -1.33 dB -15.24 dB 4:56 22-Where Ya At Mule
DR12 -1.48 dB -16.33 dB 6:42 23-Craney Crow
DR13 -1.39 dB -17.15 dB 5:29 24-Familiar Reality-Opening
DR14 -1.12 dB -19.23 dB 5:50 25-Pots on Fiyo (File Gumbo)/Who I Got To Fall On (If The Pot Get Heavy)
DR15 -1.24 dB -20.75 dB 7:58 26-Zu Zu Mamou
DR12 -0.09 dB -17.48 dB 1:50 27-Familiar Reality-Reprise
––––––––––––––––––––––––––––––––––––––––

Number of tracks: 7
Official DR value: DR13

Samplerate: 192000 Hz
Channels: 2
Bits per sample: 24
Bitrate: 5568 kbps
Codec: FLAC
================================================================================



Dr. John - The ATCO Studio Albums Collection (2014) [Official Digital Download 24bit/192kHz]

Dr. John - Dr. John's Gumbo (1972/2014)
FLAC (tracks) 24 bit/192 kHz | Time - 39:36 minutes | 1,68 GB
FLAC (tracks) 24 bit/96 kHz | Time - 39:36 minutes | 914 MB
Studio Master, Official Digital Download | Artwork: Front cover

Dr. John's Gumbo bridged the gap between post-hippie rock and early rock & roll, blues, and R&B, offering a selection of classic New Orleans R&B, including "Tipitina" and "Junko Partner," updated with a gritty, funky beat. There aren't as many psychedelic flourishes as there were on his first two albums, but the ones that are present enhance his sweeping vision of American roots music. And that sly fusion of styles makes Dr. John's Gumbo one of Dr. John's finest albums.

Tracklist:

01 - Iko Iko
02 - Blow Wind Blow
03 - Big Chief
04 - Somebody Changed The Lock
05 - Mess Around
06 - Let The Good Times Roll
07 - Junko Partner
08 - Stack-A-Lee
09 - Tipitina
10 - Those Lonely Nights
11 - Huey Smith Medley
12 - Little Liza Jane

Analyzed: Dr. John / Dr. John's Gumbo
––––––––––––––––––––––––––––––––––––––––

DR Peak RMS Duration Track
––––––––––––––––––––––––––––––––––––––––
DR12 -1.92 dB -16.42 dB 4:12 28-Iko Iko
DR11 -3.42 dB -17.11 dB 3:14 29-Blow Wind Blow
DR12 -3.39 dB -18.03 dB 3:25 30-Big Chief
DR12 -1.52 dB -17.65 dB 2:43 31-Somebody Changed The Lock
DR12 -0.84 dB -15.05 dB 3:13 32-Mess Around
DR11 -0.03 dB -15.12 dB 3:56 33-Let The Good Times Roll
DR11 -1.19 dB -14.60 dB 4:28 34-Junko Partner
DR11 -1.76 dB -14.45 dB 3:28 35-Stack-A-Lee
DR10 0.00 dB -13.17 dB 2:10 36-Tipitina
DR11 -3.19 dB -16.57 dB 2:31 37-Those Lonely Nights
DR12 -2.69 dB -16.72 dB 3:18 38-Huey Smith Medley
DR12 -2.33 dB -16.27 dB 2:59 39-Little Liza Jane
––––––––––––––––––––––––––––––––––––––––

Number of tracks: 12
Official DR value: DR11

Samplerate: 192000 Hz
Channels: 2
Bits per sample: 24
Bitrate: 5801 kbps
Codec: FLAC
================================================================================



Dr. John - The ATCO Studio Albums Collection (2014) [Official Digital Download 24bit/192kHz]

Dr. John - In The Right Place (1973/2014)
FLAC (tracks) 24 bit/192 kHz | Time - 33:40 minutes | 1,4 GB
FLAC (tracks) 24 bit/96 kHz | Time - 33:40 minutes | 761 MB
Studio Master, Official Digital Download | Artwork: Front cover

Dr. John finally struck paydirt here and was certainly In the Right Place. With the hit single "Right Place Wrong Time" bounding up the charts, this fine collection saw many unaware listeners being initiated into New Orleans-style rock. Also including Allen Toussaint's "Life," and a funky little number entitled "Traveling Mood," which shows off the good doctor's fine piano styling, and with able help from the Meters as backup group, In the Right Place is still a fine collection to own.

Tracklist:

01 - Right Place Wrong Time
02 - Same Old Same Old
03 - Just The Same
04 - Qualified
05 - Traveling Mood
06 - Peace Brother Peace
07 - Life
08 - Such A Night
09 - Shoo Fly Marches On
10 - I Been Hoodood
11 - Cold Cold Cold

Analyzed: Dr. John / In the Right Place
––––––––––––––––––––––––––––––––––––––––

DR Peak RMS Duration Track
––––––––––––––––––––––––––––––––––––––––
DR14 -1.52 dB -19.28 dB 2:55 40-Right Place Wrong Time
DR14 -2.06 dB -19.51 dB 2:43 41-Same Old Same Old
DR14 -7.11 dB -23.12 dB 2:53 42-Just The Same
DR14 -1.28 dB -17.38 dB 4:51 43-Qualified
DR14 -2.11 dB -18.53 dB 2:53 44-Traveling Mood
DR13 -2.29 dB -19.07 dB 2:52 45-Peace Brother Peace
DR13 -4.24 dB -20.05 dB 2:30 46-Life
DR13 -3.05 dB -19.25 dB 2:56 47-Such A Night
DR13 -2.63 dB -18.38 dB 3:16 48-Shoo Fly Marches On
DR13 -0.02 dB -15.80 dB 3:13 49-I Been Hoodood
DR13 -1.87 dB -18.33 dB 2:36 50-Cold Cold Cold
––––––––––––––––––––––––––––––––––––––––

Number of tracks: 11
Official DR value: DR13

Samplerate: 192000 Hz
Channels: 2
Bits per sample: 24
Bitrate: 5570 kbps
Codec: FLAC
================================================================================



Dr. John - The ATCO Studio Albums Collection (2014) [Official Digital Download 24bit/192kHz]

Dr. John - Desitively Bonnaroo (1974/2014)
FLAC (tracks) 24 bit/192 kHz | Time - 36:52 minutes | 1,55 GB
FLAC (tracks) 24 bit/96 kHz | Time - 36:52 minutes | 843 MB
Studio Master, Official Digital Download | Artwork: Front cover

When you latch onto a hit formula, don't mess with it, and that is just what the doctor ordered with Desitively Bonnaroo. With installment number three of Dr. John's funky New Orleans-styled rock & roll, trying to strike gold again proved elusive. There wasn't the big hit single this time around to help boost sales, and the tunes were starting to sound a little too familiar. While not a carbon copy of his previous releases, Desitively Bonnaroo was a disappointment to his fans. Good as it was, it was the end of an era for Dr. John and his type of music.

Tracklist:

01 - Quitters Never Win
02 - Stealin'
03 - What Comes Around (Goes Around)
04 - Me Minus You Equals Loneliness
05 - Mos' Scocious
06 - (Everybody Wanna Get Rich) Rite Away
07 - Let's Make A Better World
08 - R U 4 Real
09 - Sing Along Song
10 - Can't Git Enuff
11 - Go Tell The People
12 - Desitively Bonnaroo

Analyzed: Dr. John / Desitively Bonnaroo
––––––––––––––––––––––––––––––––––––––––

DR Peak RMS Duration Track
––––––––––––––––––––––––––––––––––––––––
DR11 -0.71 dB -14.02 dB 3:16 51-Quitters Never Win
DR12 -1.06 dB -14.36 dB 3:30 52-Stealin'
DR11 -1.60 dB -15.70 dB 3:11 53-What Comes Around (Goes Around)
DR13 -0.99 dB -17.06 dB 3:03 54-Me Minus You Equals Loneliness
DR11 -1.25 dB -14.47 dB 2:46 55-Mos' Scocious
DR11 -1.00 dB -14.06 dB 2:42 56-(Everybody Wanna Get Rich) Rite Away
DR11 -0.19 dB -14.16 dB 2:55 57-Let's Make A Better World
DR12 -1.01 dB -15.39 dB 4:15 58-R U 4 Real
DR11 -0.39 dB -14.51 dB 2:42 59-Sing Along Song
DR11 -0.57 dB -14.32 dB 2:59 60-Can't Git Enuff
DR11 -0.84 dB -14.85 dB 3:03 61-Go Tell The People
DR12 -0.03 dB -13.83 dB 2:30 62-Desitively Bonnaroo
––––––––––––––––––––––––––––––––––––––––

Number of tracks: 12
Official DR value: DR11

Samplerate: 192000 Hz
Channels: 2
Bits per sample: 24
Bitrate: 5738 kbps
Codec: FLAC
================================================================================


Thanks to the Original customer!