Duke Ellington - Supreme Jazz (2006) [2.0 & 5.1] PS3 ISO + FLAC {RE-UP}

Posted By: HDAtall
Duke Ellington - Supreme Jazz (2006) [2.0 & 5.1] PS3 ISO + FLAC {RE-UP}

Duke Ellington - Supreme Jazz (2006) [2.0 & 5.1]
PS3 Rip | SACD ISO | DST64 2.0 & 5.1 > 1-bit/2.8224 MHz | 65:54 mins | Scans included | 3,75 GB
or FLAC 2.0 Stereo (converted with foobar2000 to tracks) 24bit/88,2 kHz | Scans included | 1,17 GB
Features 2.0 Stereo and 5.1 multichannel surround sound | Label: Membran Music Ltd.

Duke Ellington was the most important composer in the history of jazz as well as being a bandleader who held his large group together continuously for almost 50 years. The two aspects of his career were related; Ellington used his band as a musical laboratory for his new compositions and shaped his writing specifically to showcase the talents of his bandmembers, many of whom remained with him for long periods. Ellington also wrote film scores and stage musicals, and several of his instrumental works were adapted into songs that became standards. In addition to touring year in and year out, he recorded extensively, resulting in a gigantic body of work that was still being assessed a quarter century after his death.

Tracklist:

01. The Tattooed Bride
02. Sophisticated
03. Solitude
04. Warm Valley
05. Prelude To A Kiss
06. Satin Doll
07. Caravan
08. Flamingo
09. In A Sentimental Mood
10. Black And Tan Fantasy
11. Pasion Flower
12. Bakiff

foobar2000 1.2.9 / Dynamic Range Meter 1.1.1

––––––––––––––––––––––––––––––––––––––––
Analyzed: Duke Ellington / Supreme Jazz
––––––––––––––––––––––––––––––––––––––––

DR Peak RMS Duration Track
––––––––––––––––––––––––––––––––––––––––
DR12 -6.03 dB -24.19 dB 11:42 01-The Tattooed Bride
DR13 -5.98 dB -24.66 dB 11:28 02-Sophisticated
DR13 -6.02 dB -25.43 dB 8:25 03-Solitude
DR13 -6.02 dB -26.89 dB 3:23 04-Warm Valley
DR14 -6.03 dB -28.31 dB 3:04 05-Prelude To A Kiss
DR14 -6.01 dB -28.92 dB 3:00 06-Satin Doll
DR15 -6.00 dB -31.28 dB 4:29 07-Caravan
DR13 -6.04 dB -26.78 dB 3:43 08-Flamingo
DR13 -6.03 dB -27.96 dB 2:32 09-In A Sentimental Mood
DR17 -6.01 dB -32.02 dB 5:12 10-Black And Tan Fantasy
DR14 -6.03 dB -30.17 dB 3:06 11-Pasion Flower
DR13 -6.02 dB -26.84 dB 5:50 12-Bakiff
––––––––––––––––––––––––––––––––––––––––

Number of tracks: 12
Official DR value: DR14

Samplerate: 2822400 Hz / PCM Samplerate: 88200 Hz
Channels: 6
Bits per sample: 24
Bitrate: 16934 kbps
Codec: DST64
================================================================================

––––––––––––––––––––––––––––––––––––––––
Analyzed: Duke Ellington / Supreme Jazz
––––––––––––––––––––––––––––––––––––––––

DR Peak RMS Duration Track
––––––––––––––––––––––––––––––––––––––––
DR12 -6.04 dB -21.27 dB 11:42 01-The Tattooed Bride
DR12 -6.03 dB -21.52 dB 11:28 02-Sophisticated
DR13 -6.14 dB -22.73 dB 8:25 03-Solitude
DR13 -6.02 dB -23.91 dB 3:23 04-Warm Valley
DR15 -6.03 dB -25.99 dB 3:04 05-Prelude To A Kiss
DR14 -6.03 dB -26.05 dB 3:00 06-Satin Doll
DR17 -6.10 dB -28.29 dB 4:29 07-Caravan
DR14 -6.03 dB -24.21 dB 3:43 08-Flamingo
DR15 -6.03 dB -25.55 dB 2:32 09-In A Sentimental Mood
DR17 -6.04 dB -29.30 dB 5:12 10-Black And Tan Fantasy
DR15 -6.02 dB -27.76 dB 3:06 11-Pasion Flower
DR14 -6.02 dB -24.07 dB 5:50 12-Bakiff
––––––––––––––––––––––––––––––––––––––––

Number of tracks: 12
Official DR value: DR14

Samplerate: 2822400 Hz / PCM Samplerate: 88200 Hz
Channels: 2
Bits per sample: 24
Bitrate: 5645 kbps
Codec: DST64


Thanks to SergeyVP!
Uncompressed SACD ISO size > 3,57 GB

If you want leave some comment - login at the mirror > http://old.avxhome.se/hraphile