Eagles - Greatest Hits, Vol. 2 (1982/2013/2017) [Official Digital Download 24-bit/96kHz]

Posted By: HDV
Eagles - Greatest Hits, Vol. 2 (1982/2013/2017) [Official Digital Download 24-bit/96kHz]

Eagles - Greatest Hits, Vol. 2 (1982/2013/2017)
FLAC (tracks) 24-bit/96 kHz | Time - 46:08 minutes | 997 MB
Studio Master, Official Digital Download | Artwork: Front cover

Eagles Greatest Hits, Vol. 2 is the second compilation album by the Eagles. It features many of their biggest hits not on Their Greatest Hits (1971–1975), including "Hotel California," their signature song. The album was released in 1982, after the band's breakup. That same year, Don Henley and Glenn Frey both released their debut solo albums.

With the Eagles having officially disbanded in May 1982, leaving behind eight Top 40 hits that followed the release of the spectacularly successful Eagles: Their Greatest Hits 1971-1975, Asylum Records naturally compiled a second hits collection for fall 1982 release. Seven of those hits were included (the exception being the seasonal "Please Come Home for Christmas"), along with three LP tracks, one each from One of These Nights, Hotel California, and The Long Run. Disdained by longtime fans and by the Eagles themselves, the collection was perfect for listeners who knew the band through number one radio hits like "New Kid in Town," "Hotel California," and "Heartache Tonight." It also spared them having to buy mediocre albums like The Long Run and Eagles Live just to have copies of the best-known songs from those releases. No wonder, then, that over the years, Eagles Greatest Hits, Vol. 2 achieved multi-platinum status.

Tracklist:

01 - Hotel California
02 - Heartache Tonight
03 - Seven Bridges Road
04 - Victim Of Love
05 - The Sad Cafe
06 - Life In The Fast Lane
07 - I Can't Tell You Why
08 - New Kid In Town
09 - The Long Run
10 - After The Thrill Is Gone

Analyzed: Eagles / Eagles Greatest Hits, Vol. 2 (Remastered)
––––––––––––––––––––––––––––––––––––––––

DR Peak RMS Duration Track
––––––––––––––––––––––––––––––––––––––––
DR12 0.00 dB -15.26 dB 6:31 01-Hotel California
DR10 0.00 dB -12.04 dB 4:26 02-Heartache Tonight
DR12 -1.67 dB -16.37 dB 3:05 03-Seven Bridges Road
DR11 0.00 dB -13.08 dB 4:10 04-Victim Of Love
DR12 0.00 dB -14.33 dB 5:33 05-The Sad Cafe
DR11 0.00 dB -13.44 dB 4:46 06-Life In The Fast Lane
DR13 0.00 dB -14.71 dB 4:55 07-I Can't Tell You Why
DR11 0.00 dB -14.35 dB 5:05 08-New Kid In Town
DR12 0.00 dB -12.79 dB 3:41 09-The Long Run
DR12 0.00 dB -15.80 dB 3:57 10-After The Thrill Is Gone
––––––––––––––––––––––––––––––––––––––––

Number of tracks: 10
Official DR value: DR12

Samplerate: 96000 Hz
Channels: 2
Bits per sample: 24
Bitrate: 2778 kbps
Codec: FLAC
================================================================================


Thanks to the Original customer!