Tags
Language
Tags

Elizaveta Pakhomova, Tatiana Barsukova, Marina Dichenko & Olga Solovieva - Myaskovsky: Vocal Works, Vol. 1 (2021) [24/44]

Posted By: delpotro
Elizaveta Pakhomova, Tatiana Barsukova, Marina Dichenko & Olga Solovieva - Myaskovsky: Vocal Works, Vol. 1 (2021) [24/44]

Elizaveta Pakhomova, Tatiana Barsukova, Marina Dichenko & Olga Solovieva - Myaskovsky: Vocal Works, Vol. 1 (2021)
FLAC (tracks) 24-bit/44,1 kHz | Front Cover & Digital Booklet | Time - 68:24 minutes | 582 MB
Classical, Vocal | Label: Toccata Classics, Official Digital Download

The dignified bearing and quiet wisdom of Nikolai Myaskovsky (1881–1950) gained him the sobriquet of ‘the conscience of Russian music’ – and those qualities are reflected in the unemphatic strength of his music. His orchestral, chamber and instrumental works are regaining the currency they once enjoyed, but his large corpus of songs, many of them understated masterpieces, has yet to attract systematic attention – a situation this series hopes to remedy. The pairing here of his late Violin Sonata with his last two song-cycles for soprano and piano mirrors the Moscow concert in 1947 when all three were given their first performances.

Tracklist:
1. Tatiana Barsukova & Olga Solovieva – Lyric Book, Op. 72: No. 1, Will I Forget You? (01:52)
2. Tatiana Barsukova & Olga Solovieva – Lyric Book, Op. 72: No. 2, Like a Sail That Flashes at Times (01:28)
3. Tatiana Barsukova & Olga Solovieva – Lyric Book, Op. 72: No. 3, Cloudless April Day (02:21)
4. Tatiana Barsukova & Olga Solovieva – Lyric Book, Op. 72: No. 4, How Often at Night (04:46)
5. Tatiana Barsukova & Olga Solovieva – Lyric Book, Op. 72: No. 5, My Heart's in the Highlands (03:04)
6. Tatiana Barsukova & Olga Solovieva – Lyric Book, Op. 72: No. 6, My Bonnie Mary (03:10)
7. Elizaveta Pakhomova & Olga Solovieva – 12 Romances After Lermontov, Op. 40: No. 1, A Cossack Lullaby (05:23)
8. Elizaveta Pakhomova & Olga Solovieva – 12 Romances After Lermontov, Op. 40: No. 2, I Go Out Alone on the Road (03:20)
9. Elizaveta Pakhomova & Olga Solovieva – 12 Romances After Lermontov, Op. 40: No. 3, No., It Is Not You Whom I Love so Ardently (02:05)
10. Elizaveta Pakhomova & Olga Solovieva – 12 Romances After Lermontov, Op. 40: No. 4, To the Portrait (01:43)
11. Elizaveta Pakhomova & Olga Solovieva – 12 Romances After Lermontov, Op. 40: No. 5, The Sun (01:37)
12. Elizaveta Pakhomova & Olga Solovieva – 12 Romances After Lermontov, Op. 40: No. 6, They Loved Each Other (02:10)
13. Elizaveta Pakhomova & Olga Solovieva – 12 Romances After Lermontov, Op. 40: No. 7, in an Album (01:28)
14. Elizaveta Pakhomova & Olga Solovieva – 12 Romances After Lermontov, Op. 40: No. 8, Romance (02:40)
15. Elizaveta Pakhomova & Olga Solovieva – 12 Romances After Lermontov, Op. 40: No. 9, She Sings (01:07)
16. Elizaveta Pakhomova & Olga Solovieva – 12 Romances After Lermontov, Op. 40: No. 10, Don't Cry, Don't Cry, My Child (02:57)
17. Elizaveta Pakhomova & Olga Solovieva – 12 Romances After Lermontov, Op. 40: No. 11, From an Album (01:54)
18. Elizaveta Pakhomova & Olga Solovieva – 12 Romances After Lermontov, Op. 40: No. 12, Forgive Me! We Will Not Meet Again (04:41)
19. Marina Dichenko & Olga Solovieva – Violin Sonata in F Major, Op. 70 (Final Version): I. Allegro amabile (08:40)
20. Marina Dichenko & Olga Solovieva – Violin Sonata in F Major, Op. 70 (Final Version): II. Theme, 12 Variations & Coda (11:50)

foobar2000 1.4.1 / Dynamic Range Meter 1.1.1
log date: 2021-09-29 11:49:30

––––––––––––––––––––––––––––––––––––––––
Analyzed: Elizaveta Pakhomova, Tatiana Barsukova, Marina Dichenko, Olga Solovieva / Myaskovsky: Vocal Works, Vol. 1
––––––––––––––––––––––––––––––––––––––––

DR Peak RMS Duration Track
––––––––––––––––––––––––––––––––––––––––
DR13 -0.93 dB -24.19 dB 1:53 01-Myaskovsky: Lyric Book, Op. 72: No. 1, Will I Forget You?
DR12 -3.00 dB -22.42 dB 1:29 02-Myaskovsky: Lyric Book, Op. 72: No. 2, Like a Sail That Flashes at Times
DR13 -4.42 dB -25.68 dB 2:21 03-Myaskovsky: Lyric Book, Op. 72: No. 3, Cloudless April Day
DR14 -1.44 dB -23.61 dB 4:47 04-Myaskovsky: Lyric Book, Op. 72: No. 4, How Often at Night
DR13 -1.23 dB -20.23 dB 3:04 05-Myaskovsky: Lyric Book, Op. 72: No. 5, My Heart's in the Highlands
DR13 -2.29 dB -21.04 dB 3:10 06-Myaskovsky: Lyric Book, Op. 72: No. 6, My Bonnie Mary
DR14 -2.62 dB -23.69 dB 5:23 07-Myaskovsky: 12 Romances After Lermontov, Op. 40: No. 1, A Cossack Lullaby
DR12 -3.58 dB -22.92 dB 3:20 08-Myaskovsky: 12 Romances After Lermontov, Op. 40: No. 2, I Go Out Alone on the Road
DR13 -0.80 dB -20.86 dB 2:05 09-Myaskovsky: 12 Romances After Lermontov, Op. 40: No. 3, No, It Is Not You Whom I Love so Ardently
DR12 -6.99 dB -22.96 dB 1:44 10-Myaskovsky: 12 Romances After Lermontov, Op. 40: No. 4, To the Portrait
DR11 -8.97 dB -26.23 dB 1:37 11-Myaskovsky: 12 Romances After Lermontov, Op. 40: No. 5, The Sun
DR12 -0.71 dB -22.02 dB 2:10 12-Myaskovsky: 12 Romances After Lermontov, Op. 40: No. 6, They Loved Each Other
DR12 -5.63 dB -24.96 dB 1:28 13-Myaskovsky: 12 Romances After Lermontov, Op. 40: No. 7, In an Album
DR13 -5.58 dB -24.47 dB 2:40 14-Myaskovsky: 12 Romances After Lermontov, Op. 40: No. 8, Romance
DR11 -9.43 dB -26.05 dB 1:07 15-Myaskovsky: 12 Romances After Lermontov, Op. 40: No. 9, She Sings
DR13 -2.00 dB -22.46 dB 2:58 16-Myaskovsky: 12 Romances After Lermontov, Op. 40: No. 10, Don't Cry, Don't Cry, My Child
DR14 -2.17 dB -23.90 dB 1:54 17-Myaskovsky: 12 Romances After Lermontov, Op. 40: No. 11, From an Album
DR13 -2.25 dB -22.51 dB 4:42 18-Myaskovsky: 12 Romances After Lermontov, Op. 40: No. 12, Forgive Me! We Will Not Meet Again
DR14 -2.79 dB -21.85 dB 8:41 19-Myaskovsky: Violin Sonata in F Major, Op. 70 (Final Version): I. Allegro amabile
DR15 -0.74 dB -20.65 dB 11:50 20-Myaskovsky: Violin Sonata in F Major, Op. 70 (Final Version): II. Theme, 12 Variations & Coda
––––––––––––––––––––––––––––––––––––––––

Number of tracks: 20
Official DR value: DR13

Samplerate: 44100 Hz
Channels: 2
Bits per sample: 24
Bitrate: 1338 kbps
Codec: FLAC
================================================================================


Thanks to the Original customer!