Ellie Goulding - Delirium {Deluxe Edition} (2015) [Official Digital Download]

Posted By: HDV
Ellie Goulding - Delirium {Deluxe Edition} (2015) [Official Digital Download]

Ellie Goulding - Delirium (2015) [Deluxe Edition]
FLAC (tracks) 24-bit/44,1 kHz | Time - 82:12 minutes | 1,03 GB
Studio Master, Official Digital Download | Artwork: Digital booklet

The third album of Ellie Goulding, "Delirium", is the follow-up to 2012's "Halcyon", which cemented Goulding's status as a global artist. The first taste of the album comes in new single "On My Mind". "Delirium" is the sound of an artist at the top of her game. "A part of me views this album as an experiment – to make a big pop album", she says. "I made a conscious decision that I wanted it to be on another level".

British chanteuse Ellie Goulding returns with her highly anticipated third studio album, 2015's expertly produced Delirium. Goulding's previous effort, 2012's Halcyon, was a hypnotically ambient, lightly experimental album that balanced catchy pop hooks with textural electronic soundscapes. While Delirium isn't devoid of this electronic atmosphere, it's somewhat more mainstream in its tone, and finds Goulding expanding her sonic palette with a melodically catchy set of more R&B-infused songs. Helping Goulding to achieve this are a handful of uber-pop producer/songwriters, including Sweden's Max Martin (Britney Spears, Taylor Swift) and Carl Falk (One Direction, Nicki Minaj), Savan Kotecha (Ariana Grande, One Direction), Greg Kurstin (Sia, P!nk), and others. Halcyon also benefited from a similarly collaborative approach, but Delirium feels less distinctly personal, bigger in scope, and brimming with a pressurized commercial energy. But that's not necessarily a bad thing. Whereas Halcyon may have required several listens to grow on you, Delirium grabs you with immediately hooky, danceable tracks like "Something in the Way You Move," "Keep on Dancin'," and "Don't Need Nobody." Some of the more R&B-leaning cuts like the Police-meets-Rihanna single "On My Mind" seem at first like an odd fit for Goulding's highly resonant, throaty chirp of a voice. That said, Goulding's voice has always fit well in the contemporary pop landscape and even when you get the sense that she's trying on someone else's sound, as in the CeeLo-esque "Around U" and the swoon-worthy "Codes" with its '90s Brandy-meets-M83 vibe, the sheer craftsmanship of the material alone keeps you listening. There are also enough passionately heartfelt EDM anthems, like the effusive "Army" and bubbly, Ibiza-ready "Devotion," to please longtime Goulding fans. Ultimately, it's the unexpectedly appealing combination of Goulding's distinctive voice and the melismatic R&B bent of the songs on Delirium that makes for such an ecstatic listen.

Tracklist:

01 - Intro (Delirium)
02 - Aftertaste
03 - Something In The Way You Move
04 - Keep On Dancin'
05 - On My Mind
06 - Around U
07 - Codes
08 - Holding On For Life
09 - Love Me Like You Do (From "Fifty Shades Of Grey")
10 - Don't Need Nobody
11 - Don't Panic
12 - We Can't Move To This
13 - Army
14 - Lost And Found
15 - Devotion
16 - Scream It Out
17 - The Greatest
18 - I Do What I Love
19 - Paradise
20 - Winner
21 - Heal
22 - Outside [feat. Calvin Harris]
23 - Powerful [Major Lazer feat. Ellie Goulding & Tarrus Riley]

Analyzed: Calvin Harris feat. Ellie Goulding / Delirium (1)
Ellie Goulding / Delirium (2-22)
Major Lazer feat. Ellie Goulding & Tarrus Riley / Delirium (23)
––––––––––––––––––––––––––––––––––––––––

DR Peak RMS Duration Track
––––––––––––––––––––––––––––––––––––––––
DR5 0.00 dB -10.36 dB 1:54 01-Intro (Delirium)
DR6 0.00 dB -7.24 dB 3:46 02-Aftertaste
DR6 0.00 dB -7.10 dB 3:47 03-Something In The Way You Move
DR6 0.00 dB -7.91 dB 3:46 04-Keep On Dancin'
DR6 0.00 dB -8.24 dB 3:33 05-On My Mind
DR7 0.00 dB -8.18 dB 3:18 06-Around U
DR7 0.00 dB -9.28 dB 3:16 07-Codes
DR6 0.00 dB -7.75 dB 4:15 08-Holding On For Life
DR5 0.00 dB -8.37 dB 4:13 09-Love Me Like You Do (From "Fifty Shades Of Grey")
DR6 0.00 dB -7.96 dB 3:34 10-Don't Need Nobody
DR7 0.00 dB -8.52 dB 3:16 11-Don't Panic
DR6 0.00 dB -7.30 dB 3:28 12-We Can't Move To This
DR6 0.00 dB -9.36 dB 3:57 13-Army
DR7 0.00 dB -9.20 dB 3:37 14-Lost And Found
DR7 0.00 dB -8.91 dB 3:47 15-Devotion
DR5 0.00 dB -7.57 dB 3:10 16-Scream It Out
DR6 0.00 dB -7.87 dB 3:31 17-The Greatest
DR6 0.00 dB -7.36 dB 2:52 18-I Do What I Love
DR5 0.00 dB -6.40 dB 3:45 19-Paradise
DR7 0.00 dB -7.94 dB 3:20 20-Winner
DR6 0.00 dB -8.57 dB 4:53 21-Heal
DR4 0.00 dB -6.83 dB 3:47 22-Outside [feat. Calvin Harris]
DR6 0.00 dB -8.18 dB 3:26 23-Powerful [Major Lazer feat. Ellie Goulding & Tarrus Riley]
––––––––––––––––––––––––––––––––––––––––

Number of tracks: 23
Official DR value: DR6

Samplerate: 44100 Hz
Channels: 2
Bits per sample: 24
Bitrate: 1652 kbps
Codec: FLAC
================================================================================


Thanks to the Original customer!

Ellie Goulding - Halcyon