Tags
Language
Tags

Elton John - Goodbye Yellow Brick Road (1973/2014) [Blu-Ray Audio Rip 24 bit/96kHz]

Posted By: HDV
Elton John - Goodbye Yellow Brick Road (1973/2014) [Blu-Ray Audio Rip 24 bit/96kHz]

Elton John - Goodbye Yellow Brick Road (1973/2014)
FLAC (tracks) 24 bit/96 kHz | Time - 76:11 minutes | 1,64 GB
Blu-Ray Audio Rip | Sourced Track - LPCM 2.0 Stereo | Artwork: Full Scans

Elton John’s 1973 best selling masterpiece - seven times platinum - was also his most brilliantly diverse record. Originally released as a double LP, the album runs a gamut of styles and features some of the greatest singles of 1970s rock.

It was designed to be a blockbuster and it was. Prior to Goodbye Yellow Brick Road, Elton John had hits – his second album, Elton John, went Top 10 in the U.S. and U.K., and he had smash singles in "Crocodile Rock" and "Daniel" – but this 1973 album was a statement of purpose spilling over two LPs, which was all the better to showcase every element of John's spangled personality. Opening with the 11-minute melodramatic exercise "Funeral for a Friend/Love Lies Bleeding" – as prog as Elton ever got – Goodbye Yellow Brick Road immediately embraces excess but also tunefulness, as John immediately switches over to "Candle in the Wind" and "Bennie & the Jets," two songs that form the core of his canon and go a long way toward explaining the over-stuffed appeal of Goodbye Yellow Brick Road. This was truly the debut of Elton John the entertainer, the pro who knows how to satisfy every segment of his audience, and this eagerness to please means the record is giddy but also overwhelming, a rush of too much muchness. Still, taken a side at a time, or even a song a time, it is a thing of wonder, serving up such perfectly sculpted pop songs as "Grey Seal," full-bore rockers as "Saturday Night's Alright for Fighting" and "Your Sister Can't Twist (But She Can Rock & Roll)," cinematic ballads like "I've Seen That Movie Too," throwbacks to the dusty conceptual sweep of Tumbleweed Connection in the form of "The Ballad of Danny Bailey (1909-34)," and preposterous glam novelties, like "Jamaica Jerk-Off." This touched on everything John did before, and suggested ways he'd move in the near-future, and that sprawl is always messy but usually delightful, a testament to Elton's '70s power as a star and a musician.

Tracklist:

01 - Funeral For A Friend (Love Lies Bleeding)
02 - Candle In The Wind
03 - Bennie And The Jets
04 - Goodbye Yellow Brick Road
05 - This Song Has No Title
06 - Grey Seal
07 - Jamaica Jerk-Off
08 - I've Seen That Movie Too
09 - Sweet Painted Lady
10 - The Ballad Of Danny Bailey (1909-34)
11 - Dirty Little Girl
12 - All The Girls Love Alice
13 - Your Sister Can't Twist (But She Can Rock 'n Roll)
14 - Saturday Night's Alright For Fighting
15 - Roy Rogers
16 - Social Disease
17 - Harmony

Digitally Remastered.

Analyzed: Elton John / Goodbye Yellow Brick Road
––––––––––––––––––––––––––––––––––––––––

DR Peak RMS Duration Track
––––––––––––––––––––––––––––––––––––––––
DR8 -0.09 dB -11.35 dB 11:07 01-Funeral For A Friend (Love Lies Bleeding)
DR10 -0.10 dB -12.47 dB 3:49 02-Candle In The Wind
DR9 -0.10 dB -11.63 dB 5:23 03-Bennie And The Jets
DR9 -0.09 dB -11.71 dB 3:14 04-Goodbye Yellow Brick Road
DR8 -0.10 dB -11.90 dB 2:23 05-This Song Has No Title
DR8 -0.08 dB -10.49 dB 3:59 06-Grey Seal
DR10 -0.16 dB -11.66 dB 3:39 07-Jamaica Jerk-Off
DR9 -0.09 dB -12.44 dB 5:58 08-I've Seen That Movie Too
DR12 -0.92 dB -14.74 dB 3:54 09-Sweet Painted Lady
DR9 -0.34 dB -12.50 dB 4:23 10-The Ballad Of Danny Bailey (1909-34)
DR9 -0.08 dB -10.91 dB 5:01 11-Dirty Little Girl
DR9 -0.09 dB -12.20 dB 5:08 12-All The Girls Love Alice
DR8 -0.09 dB -9.83 dB 2:43 13-Your Sister Can't Twist (But She Can Rock 'n Roll)
DR8 -0.09 dB -10.11 dB 4:54 14-Saturday Night's Alright For Fighting
DR10 -0.11 dB -12.33 dB 4:07 15-Roy Rogers
DR9 -0.09 dB -11.52 dB 3:43 16-Social Disease
DR10 -0.10 dB -12.45 dB 2:46 17-Harmony
––––––––––––––––––––––––––––––––––––––––

Number of tracks: 17
Official DR value: DR9

Samplerate: 96000 Hz
Channels: 2
Bits per sample: 24
Bitrate: 2954 kbps
Codec: FLAC
================================================================================


Source: High Fidelity Pure Audio Blu-Ray Disc
All files were fully tagged.