Tags
Language
Tags

Elton John - Jewel Box: Rarities & B-Sides (3xVinyl LP) (2020) [24bit/192kHz]

Posted By: delpotro
Elton John - Jewel Box: Rarities & B-Sides (3xVinyl LP) (2020) [24bit/192kHz]

Elton John - Jewel Box: Rarities & B-Sides (3xVinyl LP) (2020)
Vinyl Rip | FLAC (tracks) 24-bit/192 kHz | Front Cover | Time - 130:06 minutes | 4,85 GB | Artwork - 121 MB
Pop Rock | Label: EMI Records

An in-depth exploration of Elton John and Bernie Taupin’s extensive catalogue including early rarities and deep cuts personally curated by Elton.

The release the fans have been waiting for. With an eye watering amount of previously unheard and unreleased tracks this is a treasure trove for Elton John fans.

Rarities 1965 -1971 – Elton’s much sought-after 1960s and early 1970s demos and music that cemented the foundations of the iconic John-Taupin writing partnership. The compelling, previously unreleased, missing piece in his illustrious story.

B Sides 1976-2005 – Flipsides, never before compiled together. Those B-Side gems that are now given another chance to sparkle.

Tracklist:
A1 – Come Back Baby
A2 – Scarecrow
A3 – A Dandelion Dies In The Wind
A4 – Velvet Fountain
A5 – Get Out Of This Town
A6 – Countryside Love Affair
A7 – The Witch´s House
A8 – Year Of The Teddy Bear
B1 – A Little Love Goes A Long Way
B2 – Mr. Lightning Strikerman
B3 – I Could Never Fall In Love With Anybody Else
B4 – I Get A Little Bit Lonely
B5 – Nina
B6 – Angel Tree
B7 – Here´s To The Next Time
C1 – Watching The Planes Go By
C2 – When The First Tear Shows
C3 – Tartan Coloured Lady
C4 – When I Was Tealby Abbey
C5 – Turn To Me
C6 – And The Clock Goes Round
C7 – I Can´t Go On Living Without You
D1 – Regimental Sgt. Zippo
D2 – Cry Willow Cry
D3 – Skyline Pigeon
D4 – Two Of A Kind
D5 – The Girl On Angel Pavement
D6 – Smokestack Children
D7 – There´s Still Time For Me
E1 – The Tide Will Turn For Rebecca
E2 – Taking The Sun From My Eyes
E3 – Sing Me No Sad Songs
E4 – Rolling Western Union
E5 – Amoreena
E6 – Madman Across The Water
F1 – Snow Queen
F2 – The Retreat
F3 – Billy And The Kids
F4 – Medicine Man
F5 – Peter´s Song

foobar2000 1.4.1 / Dynamic Range Meter 1.1.1
log date: 2021-01-21 21:32:21

––––––––––––––––––––––––––––––––––––––––
Analyzed: Bluesology / Rarities & B-Sides (1)
Elton John and Kiki Dee / Rarities & B-Sides (2)
Elton John / Rarities & B-Sides (3-40)
––––––––––––––––––––––––––––––––––––––––

DR Peak RMS Duration Track
––––––––––––––––––––––––––––––––––––––––
DR11 -1.49 dB -15.45 dB 2:47 01-Come Back Baby
DR14 -2.03 dB -18.85 dB 5:53 36-Snow Queen
DR12 -3.56 dB -19.63 dB 3:11 02-Scarecrow (piano-Tambourine demo)
DR12 -2.79 dB -18.33 dB 2:38 03-A Dandelion Dies in the Wind (piano demo)
DR11 -4.75 dB -19.45 dB 2:54 04-Velvet Fountain (piano demo)
DR12 -2.80 dB -17.00 dB 2:32 05-Get Out of This Town (piano-Tambourine demo)
DR11 -3.03 dB -17.92 dB 2:49 06-Countryside Love Affair (piano demo)
DR11 -3.14 dB -15.81 dB 2:04 07-The Witch's House (piano demo)
DR11 -2.18 dB -15.81 dB 3:37 08-Year of the Teddy Bear (piano demo)
DR12 -3.01 dB -18.13 dB 2:58 09-Little Love Goes a Long Way (piano demo)
DR12 -5.23 dB -20.30 dB 3:05 10-Mr. Lightning Strikerman (piano demo)
DR11 -3.63 dB -17.22 dB 2:02 11-I Could Never Fall in Love With Anybody Else (piano demo)
DR13 -2.91 dB -18.28 dB 2:18 12-I Get a Little Bit Lonely (piano demo)
DR14 -1.01 dB -17.77 dB 3:40 13-Nina (Band version)
DR14 -0.49 dB -16.59 dB 2:10 14-Angel Tree (Piano-Guitar-Tambourine demo)
DR14 -3.04 dB -19.98 dB 3:23 15-Here's to the Next Time (Piano-Tambourine demo)
DR10 -1.68 dB -13.48 dB 4:08 16-Watching the Planes Go By (Band version)
DR12 -1.55 dB -15.82 dB 3:00 17-When the First Tear Shows (Arranged Band version)
DR11 -2.74 dB -17.99 dB 4:10 18-Tartan Coloured Lady (Arranged Band version)
DR11 -1.23 dB -13.93 dB 2:21 19-When I Was Tealby Abbey (piano demo)
DR13 -0.93 dB -15.55 dB 3:19 20-Turn to Me (Arranged Band version)
DR11 -1.38 dB -13.89 dB 2:36 21-And the Clock Goes Round (piano demo)
DR11 -0.40 dB -13.57 dB 2:57 22-I Can't Go on Living Without You (Arranged Band version)
DR10 -1.81 dB -14.64 dB 4:01 23-Regimental Sgt. Zippo (Band version)
DR12 -0.98 dB -15.61 dB 3:40 24-Cry Willow Cry (Band demo)
DR10 -3.83 dB -16.42 dB 3:24 25-Skyline Pigeon (piano demo)
DR11 -0.41 dB -13.51 dB 2:23 26-Two of a Kind (Arranged Band version)
DR10 -1.87 dB -13.78 dB 2:24 27-The Girl on Angel Pavement (Arranged Band version)
DR10 -0.95 dB -13.77 dB 2:30 28-Smokestack Children (Arranged Band version)
DR14 -0.41 dB -16.54 dB 2:45 29-There's Still Time for Me (piano-Guitar-Tambourine demo)
DR12 -2.40 dB -18.31 dB 3:00 30-The Tide Will Turn for Rebecca (piano demo)
DR11 -4.26 dB -17.53 dB 2:46 31-Taking the Sun From My Eyes (Arranged Band version)
DR11 -0.34 dB -12.32 dB 2:38 32-Sing Me No Sad Songs (Band demo)
DR13 -0.93 dB -15.41 dB 3:53 33-Rolling Western Union (piano demo)
DR13 -1.27 dB -17.66 dB 3:46 34-Amoreena (piano demo)
DR13 -1.17 dB -17.47 dB 5:05 35-Madman Across the Water (piano demo)
DR13 -1.31 dB -17.80 dB 4:48 37-The Retreat
DR13 -2.49 dB -17.46 dB 4:22 38-Billy and the Kids
DR12 -2.21 dB -16.82 dB 4:34 39-Medicine Man
DR12 -0.40 dB -14.55 dB 3:37 40-Peter's Song
––––––––––––––––––––––––––––––––––––––––

Number of tracks: 40
Official DR value: DR12

Samplerate: 192000 Hz
Channels: 2
Bits per sample: 24
Bitrate: 5267 kbps
Codec: FLAC
================================================================================


GEAR:
Spin Clean II RCM prewash
VPI 16.5 RCM with three-step Audio Intelligent Vinyl Solutions fluids (if needed)
Klaudio Ultrasonic RCM final cleaning
Milty Zerostat 3
VPI Classic 3 / Audio-Technica VM760SLC dual moving magnet / HRX ring clamp and center weight
Lounge LCRMKIII phono stage
Sweet Vinyl SugarCube SC-1 hardware noise removal system
McIntosh MA6850 integrated amp
Apogee Quartet audio interface
Sennheiser HD-7XX headphones
BlueSky eXo 2.1 studio monitor system
2017 4.2ghz Intel i7 27” iMac
Adobe Audition CS 2018
FLAC encoded with XLD
Epson 12000XL-GA large-format scanner
Adobe Photoshop / Adobe Acrobat

Thanks to the Original customer!