Elvis Presley - His Hand In Mine (1960/2015) [Official Digital Download 24/96] RE-UP

Posted By: HDV
Elvis Presley - His Hand In Mine (1960/2015) [Official Digital Download 24/96] RE-UP

Elvis Presley - His Hand In Mine (1960/2015)
FLAC (tracks) 24-bit/96 kHz | Time - 28:11 minutes | 668 MB
Studio Master, Official Digital Download | Artwork: Front cover

Recorded and released in 1960, His Hand in Mine is the first of three gospel albums that Elvis Presley recorded during his lifetime.

From rock & roll firebrand to pop crooner to gospel believer, Elvis' career went in many directions that his earliest critics could hardly have believed. Was it heresy or conversion or commercialism that had caused Elvis the Pelvis to record a gospel EP in 1957, and then a full LP in 1960, just months after he returned from his Army stint? The answer was, of course, none of the above. What the critics didn't understand was that Elvis wasn't just a cultural phenomenon but a cultural chameleon, a vocalist who took in a range of influences – from Big Mama Thornton to Dean Martin to the Statesmen – without ever considering the possibility of a contradiction. The same teenager who couldn't stop listening to black R&B was also in attendance at each one of the monthly gospel singing meetings held in Memphis during the early '50s – and the teenage Presley was well-known to Jake Hess and the Statesmen for his exuberance and innumerable questions about the technical side of gospel quartet singing. Several years after his first rock success, during a single late-night-and-early-morning session in October, 1960, Presley recorded the material for his first full gospel LP, His Hand in Mine. Combining the spiritual force and the physical release he'd experienced from the best gospel singing, Elvis revealed himself as an all-time-great gospel singer, someone who had energy to spare (hardly a surprise) but also immense reserves of control and precision (a rarer commodity among rock & roll singers). Most of the songs were standards from the Statesmen, Blackwood Brothers, and other classic quartets Elvis loved, and represent some of the best ballad singing of his career – after all, it was recorded at the peak of his balladic powers, a time when "It's Now or Never" and "Fame and Fortune" had not yet given way to "Can't Help Falling in Love." He's fantastic serving as the lead voice in a group vocal – years of advice from the best had paid off – and he shows off his excellent high-tenor singing in a range of situations (tender on "Known Only to Him," playful on "I Believe in the Man in the Sky"). His Hand in Mine isn't just one of Elvis' best LPs, it's one of the best (and best-recorded) gospel sessions of all time.

Tracklist:

01 - His Hand in Mine
02 - I'm Gonna Walk Dem Golden Stairs
03 - In My Father's House
04 - Milky White Way
05 - Known Only to Him
06 - I Believe in the Man in the Sky
07 - Joshua Fit the Battle
08 - He Knows Just What I Need
09 - Swing Down Sweet Chariot
10 - Mansion over the Hilltop
11 - If We Never Meet Again
12 - Working on the Building

Musicians:
Elvis Presley – vocals and acoustic guitar (on "Milky White Way")
The Jordanaires – backing vocals
Boots Randolph – saxophone
Scotty Moore – electric guitar
Hank Garland – acoustic guitar
Floyd Cramer – piano
Bob Moore – double bass
D.J. Fontana, Buddy Harman – drums


Analyzed: Elvis Presley / His Hand in Mine
––––––––––––––––––––––––––––––––––––––––

DR Peak RMS Duration Track
––––––––––––––––––––––––––––––––––––––––
DR10 -1.53 dB -14.42 dB 3:18 01-His Hand in Mine
DR9 -0.87 dB -11.72 dB 1:53 02-I'm Gonna Walk Dem Golden Stairs
DR10 -2.51 dB -14.84 dB 2:06 03-In My Father's House
DR9 0.00 dB -11.21 dB 2:16 04-Milky White Way
DR10 -2.48 dB -15.04 dB 2:09 05-Known Only to Him
DR9 -0.58 dB -13.46 dB 2:13 06-I Believe in the Man in the Sky
DR9 0.00 dB -11.21 dB 2:40 07-Joshua Fit the Battle
DR10 -2.18 dB -15.51 dB 2:13 08-He Knows Just What I Need
DR10 0.00 dB -12.63 dB 2:34 09-Swing Down Sweet Chariot
DR10 -2.78 dB -14.78 dB 2:58 10-Mansion over the Hilltop
DR11 -1.51 dB -15.35 dB 2:00 11-If We Never Meet Again
DR9 -1.49 dB -12.65 dB 1:52 12-Working on the Building
––––––––––––––––––––––––––––––––––––––––

Number of tracks: 12
Official DR value: DR10

Samplerate: 96000 Hz
Channels: 2
Bits per sample: 24
Bitrate: 3194 kbps
Codec: FLAC
================================================================================


Thanks to the Original customer!