Elvis Presley - The Complete '70s Albums Collection (2015) [Official Digital Download 24/96]

Posted By: HDV
Elvis Presley - The Complete '70s Albums Collection (2015) [Official Digital Download 24/96]

Elvis Presley - The Complete '70s Albums Collection (2015)
FLAC (tracks) 24-bit/96 kHz | Time - 713:27 minutes | ~ 14,9 GB
Studio Master, Official Digital Download | Artwork: Front cover(s)

Elvis Presley may be the single most important figure in American 20th century popular music. Not necessarily the best, and certainly not the most consistent. But no one could argue with the fact that he was the musician most responsible for popularizing rock & roll on an international level. Viewed in cold sales figures, his impact was phenomenal. Dozens upon dozens of international smashes from the mid-'50s to the mid-'70s, as well as the steady sales of his catalog and reissues since his death in 1977, may make him the single highest-selling performer in history.


Elvis Presley - The Complete '70s Albums Collection (2015) [Official Digital Download 24/96]

Elvis Presley - Let's Be Friends (1970/2015) [Disc 01]
FLAC (tracks) 24-bit/96 kHz | Time - 21:54 minutes | 428 MB
Studio Master, Official Digital Download | Artwork: Front cover

Tracklist:

01 - Stay Away, Joe
02 - If I'm a Fool (For Loving You)
03 - Let's Be Friends
04 - Let's Forget About the Stars
05 - Mama
06 - I'll Be There
07 - Almost
08 - Change of Habit
09 - Have a Happy

Analyzed: Elvis Presley / Let's Be Friends
––––––––––––––––––––––––––––––––––––––––

DR Peak RMS Duration Track
––––––––––––––––––––––––––––––––––––––––
DR12 -0.10 dB -14.98 dB 1:40 01-Stay Away, Joe
DR12 -1.18 dB -15.91 dB 2:46 02-If I'm a Fool (For Loving You)
DR14 -0.94 dB -17.33 dB 2:45 03-Let's Be Friends
DR12 -1.59 dB -17.18 dB 2:27 04-Let's Forget About the Stars
DR11 -4.24 dB -18.15 dB 2:17 05-Mama
DR11 -1.21 dB -15.87 dB 2:26 06-I'll Be There
DR11 -2.10 dB -17.51 dB 1:51 07-Almost
DR12 0.00 dB -15.29 dB 3:21 08-Change of Habit
DR14 -0.81 dB -16.86 dB 2:21 09-Have a Happy
––––––––––––––––––––––––––––––––––––––––

Number of tracks: 9
Official DR value: DR12

Samplerate: 96000 Hz
Channels: 2
Bits per sample: 24
Bitrate: 2891 kbps
Codec: FLAC
================================================================================



Elvis Presley - The Complete '70s Albums Collection (2015) [Official Digital Download 24/96]

Elvis Presley - On Stage (1970/2015) [Disc 02]
FLAC (tracks) 24-bit/96 kHz | Time - 31:50 minutes | 727 MB
Studio Master, Official Digital Download | Artwork: Front cover

Tracklist:

01 - See See Rider
02 - Release Me
03 - Sweet Caroline
04 - Runaway
05 - The Wonder of You
06 - Polk Salad Annie (Live)
07 - Yesterday
08 - Proud Mary (Live)
09 - Walk a Mile in My Shoes
10 - Let It Be Me

Analyzed: Elvis Presley / On Stage
––––––––––––––––––––––––––––––––––––––––

DR Peak RMS Duration Track
––––––––––––––––––––––––––––––––––––––––
DR11 -0.62 dB -13.95 dB 3:06 01-See See Rider
DR10 -0.08 dB -12.65 dB 3:12 02-Release Me
DR10 -0.81 dB -14.81 dB 2:43 03-Sweet Caroline
DR11 -0.44 dB -14.25 dB 2:48 04-Runaway
DR10 -0.30 dB -13.55 dB 2:35 05-The Wonder of You
DR12 -0.01 dB -15.09 dB 5:33 06-Polk Salad Annie (Live)
DR11 -1.22 dB -16.14 dB 2:28 07-Yesterday
DR11 0.00 dB -13.33 dB 2:48 08-Proud Mary (Live)
DR11 0.00 dB -13.74 dB 2:59 09-Walk a Mile in My Shoes
DR10 -0.01 dB -13.66 dB 3:40 10-Let It Be Me
––––––––––––––––––––––––––––––––––––––––

Number of tracks: 10
Official DR value: DR11

Samplerate: 96000 Hz
Channels: 2
Bits per sample: 24
Bitrate: 3040 kbps
Codec: FLAC
================================================================================



Elvis Presley - The Complete '70s Albums Collection (2015) [Official Digital Download 24/96]

Elvis Presley - Almost In Love (1970/2015) [Disc 03]
FLAC (tracks) 24-bit/96 kHz | Time - 25:50 minutes | 576 MB
Studio Master, Official Digital Download | Artwork: Front cover

Tracklist:

01 - Almost In Love
02 - Long Legged Girl (With the Short Dress On)
03 - Edge of Reality
04 - My Little Friend
05 - A Little Less Conversation
06 - Rubberneckin'
07 - Clean Up Your Own Backyard
08 - U.S. Male
09 - Charro!
10 - Stay Away

Analyzed: Elvis Presley / Almost In Love
––––––––––––––––––––––––––––––––––––––––

DR Peak RMS Duration Track
––––––––––––––––––––––––––––––––––––––––
DR11 -1.32 dB -15.21 dB 2:55 01-Almost In Love
DR10 -1.63 dB -13.89 dB 1:29 02-Long Legged Girl (With the Short Dress On)
DR10 -1.06 dB -15.14 dB 3:17 03-Edge of Reality
DR11 0.00 dB -14.73 dB 2:51 04-My Little Friend
DR10 -0.05 dB -13.33 dB 2:01 05-A Little Less Conversation
DR10 0.00 dB -12.48 dB 2:15 06-Rubberneckin'
DR10 -0.74 dB -14.46 dB 3:11 07-Clean Up Your Own Backyard
DR11 -2.26 dB -15.46 dB 2:43 08-U.S. Male
DR12 -0.32 dB -16.42 dB 2:46 09-Charro!
DR10 -0.28 dB -14.73 dB 2:22 10-Stay Away
––––––––––––––––––––––––––––––––––––––––

Number of tracks: 10
Official DR value: DR11

Samplerate: 96000 Hz
Channels: 2
Bits per sample: 24
Bitrate: 2881 kbps
Codec: FLAC
================================================================================



Elvis Presley - The Complete '70s Albums Collection (2015) [Official Digital Download 24/96]

Elvis Presley - That's The Way It Is (1970/2015) [Disc 04]
FLAC (tracks) 24-bit/96 kHz | Time - 46:12 minutes | 1,02 GB
Studio Master, Official Digital Download | Artwork: Front cover

Tracklist:

01 - I Just Can't Help Believin'
02 - Twenty Days and Twenty Nights
03 - How the Web Was Woven
04 - Patch It Up
05 - Mary In the Morning
06 - You Don't Have to Say You Love Me
07 - You've Lost That Loving Feeling
08 - I've Lost You
09 - Just Pretend
10 - Stranger In the Crowd
11 - The Next Step Is Love
12 - Bridge over Troubled Water

Analyzed: Elvis Presley / That's The Way It Is
––––––––––––––––––––––––––––––––––––––––

DR Peak RMS Duration Track
––––––––––––––––––––––––––––––––––––––––
DR12 -0.07 dB -16.58 dB 4:40 01-I Just Can't Help Believin'
DR11 -1.11 dB -15.43 dB 3:17 02-Twenty Days and Twenty Nights
DR10 0.00 dB -13.17 dB 3:25 03-How the Web Was Woven
DR10 0.00 dB -12.51 dB 4:01 04-Patch It Up
DR11 -1.90 dB -15.77 dB 4:11 05-Mary In the Morning
DR10 0.00 dB -12.11 dB 2:31 06-You Don't Have to Say You Love Me
DR11 0.00 dB -15.72 dB 4:24 07-You've Lost That Loving Feeling
DR11 0.00 dB -15.03 dB 3:41 08-I've Lost You
DR10 0.00 dB -13.65 dB 4:06 09-Just Pretend
DR10 0.00 dB -12.09 dB 3:48 10-Stranger In the Crowd
DR10 -0.31 dB -13.75 dB 3:33 11-The Next Step Is Love
DR11 0.00 dB -16.61 dB 4:35 12-Bridge over Troubled Water
––––––––––––––––––––––––––––––––––––––––

Number of tracks: 12
Official DR value: DR10

Samplerate: 96000 Hz
Channels: 2
Bits per sample: 24
Bitrate: 2927 kbps
Codec: FLAC
================================================================================



Elvis Presley - The Complete '70s Albums Collection (2015) [Official Digital Download 24/96]

Elvis Presley - Elvis Country (1971/2015) [Disc 05]
FLAC (tracks) 24-bit/96 kHz | Time - 38:58 minutes | 888 MB
Studio Master, Official Digital Download | Artwork: Front cover

Tracklist:

01 - Snowbird
02 - Tomorrow Never Comes
03 - Little Cabin On the Hill
04 - Whole Lot-ta Shakin' Goin' On
05 - Funny How Time Slips Away
06 - I Really Don't Want to Know
07 - There Goes My Everything
08 - It's Your Baby, You Rock It
09 - The Fool
10 - Faded Love
11 - I Washed My Hands In Muddy Water
12 - Make the World Go Away

Analyzed: Elvis Presley / Elvis Country
––––––––––––––––––––––––––––––––––––––––

DR Peak RMS Duration Track
––––––––––––––––––––––––––––––––––––––––
DR11 0.00 dB -12.85 dB 2:18 01-Snowbird
DR11 -0.31 dB -16.21 dB 4:07 02-Tomorrow Never Comes
DR11 -0.76 dB -13.59 dB 1:58 03-Little Cabin On the Hill
DR11 -0.54 dB -14.21 dB 3:10 04-Whole Lot-ta Shakin' Goin' On
DR11 -1.70 dB -16.12 dB 4:32 05-Funny How Time Slips Away
DR11 -1.35 dB -15.74 dB 3:00 06-I Really Don't Want to Know
DR12 -2.32 dB -17.13 dB 3:10 07-There Goes My Everything
DR13 -3.16 dB -18.71 dB 3:04 08-It's Your Baby, You Rock It
DR12 -2.00 dB -16.33 dB 2:34 09-The Fool
DR11 -0.83 dB -14.39 dB 3:19 10-Faded Love
DR11 -0.86 dB -14.19 dB 3:57 11-I Washed My Hands In Muddy Water
DR10 -2.13 dB -15.43 dB 3:50 12-Make the World Go Away
––––––––––––––––––––––––––––––––––––––––

Number of tracks: 12
Official DR value: DR11

Samplerate: 96000 Hz
Channels: 2
Bits per sample: 24
Bitrate: 2965 kbps
Codec: FLAC
================================================================================



Elvis Presley - The Complete '70s Albums Collection (2015) [Official Digital Download 24/96]

Elvis Presley - Love Letters From Elvis (1971/2015) [Disc 06]
FLAC (tracks) 24-bit/96 kHz | Time - 33:18 minutes | 753 MB
Studio Master, Official Digital Download | Artwork: Front cover

Tracklist:

01 - Love Letters
02 - When I'm Over You
03 - If I Were You
04 - Got My Mojo Working / Keep Your Hands Off of It
05 - Heart of Rome
06 - Only Believe
07 - This Is Our Dance
08 - Cindy, Cindy
09 - I'll Never Know
10 - It Ain't No Big Thing (But It's Growing)
11 - Life

Analyzed: Elvis Presley / Love Letters From Elvis
––––––––––––––––––––––––––––––––––––––––

DR Peak RMS Duration Track
––––––––––––––––––––––––––––––––––––––––
DR11 0.00 dB -14.47 dB 2:55 01-Love Letters
DR11 0.00 dB -13.64 dB 2:30 02-When I'm Over You
DR11 -0.28 dB -14.92 dB 3:03 03-If I Were You
DR11 0.00 dB -12.80 dB 4:39 04-Got My Mojo Working / Keep Your Hands Off of It
DR10 -0.08 dB -13.57 dB 2:59 05-Heart of Rome
DR10 -0.02 dB -13.71 dB 2:52 06-Only Believe
DR11 0.00 dB -13.68 dB 3:17 07-This Is Our Dance
DR11 -0.50 dB -12.88 dB 2:35 08-Cindy, Cindy
DR11 -0.58 dB -15.20 dB 2:28 09-I'll Never Know
DR12 -0.02 dB -15.10 dB 2:50 10-It Ain't No Big Thing (But It's Growing)
DR10 -0.01 dB -14.06 dB 3:10 11-Life
––––––––––––––––––––––––––––––––––––––––

Number of tracks: 11
Official DR value: DR11

Samplerate: 96000 Hz
Channels: 2
Bits per sample: 24
Bitrate: 3047 kbps
Codec: FLAC
================================================================================



Elvis Presley - The Complete '70s Albums Collection (2015) [Official Digital Download 24/96]

Elvis Presley - C'mon Everybody (1971/2015) [Disc 07]
FLAC (tracks) 24-bit/96 kHz | Time - 23:06 minutes | 467 MB
Studio Master, Official Digital Download | Artwork: Front cover

Tracklist:

01 - C'mon Everybody
02 - Angel (Take 7)
03 - Easy Come, Easy Go
04 - A Whistling Tune
05 - Follow That Dream
06 - King of the Whole Wide World
07 - I'll Take Love
08 - I'm Not the Marrying Kind
09 - This Is Living
10 - Today, Tomorrow and Forever

Analyzed: Elvis Presley / C'mon Everybody
––––––––––––––––––––––––––––––––––––––––

DR Peak RMS Duration Track
––––––––––––––––––––––––––––––––––––––––
DR12 -0.20 dB -14.33 dB 2:20 01-C'mon Everybody
DR12 -0.35 dB -14.95 dB 2:40 02-Angel (Take 7)
DR10 -0.26 dB -13.47 dB 2:15 03-Easy Come, Easy Go
DR11 -0.96 dB -15.21 dB 2:44 04-A Whistling Tune
DR10 -1.03 dB -12.55 dB 1:39 05-Follow That Dream
DR12 -0.31 dB -15.21 dB 2:10 06-King of the Whole Wide World
DR10 -1.26 dB -13.63 dB 2:16 07-I'll Take Love
DR11 -0.94 dB -14.60 dB 1:52 08-I'm Not the Marrying Kind
DR12 0.00 dB -14.26 dB 1:47 09-This Is Living
DR12 0.00 dB -16.80 dB 3:25 10-Today, Tomorrow and Forever
––––––––––––––––––––––––––––––––––––––––

Number of tracks: 10
Official DR value: DR11

Samplerate: 96000 Hz
Channels: 2
Bits per sample: 24
Bitrate: 2802 kbps
Codec: FLAC
================================================================================



Elvis Presley - The Complete '70s Albums Collection (2015) [Official Digital Download 24/96]

Elvis Presley - I Got Lucky (1971/2015) [Disc 08]
FLAC (tracks) 24-bit/96 kHz | Time - 22:32 minutes | 466 MB
Studio Master, Official Digital Download | Artwork: Front cover

Tracklist:

01 - I Got Lucky
02 - What a Wonderful Life
03 - I Need Somebody to Lean On
04 - Yoga Is as Yoga Does
05 - Riding the Rainbow
06 - Fools Fall In Love
07 - The Love Machine
08 - Home Is Where the Heart Is
09 - You Gotta Stop
10 - If You Think I Don't Need You

Analyzed: Elvis Presley / I Got Lucky
––––––––––––––––––––––––––––––––––––––––

DR Peak RMS Duration Track
––––––––––––––––––––––––––––––––––––––––
DR11 0.00 dB -13.60 dB 1:56 01-I Got Lucky
DR10 -0.86 dB -12.82 dB 2:28 02-What a Wonderful Life
DR13 -2.40 dB -20.39 dB 3:03 03-I Need Somebody to Lean On
DR11 -0.67 dB -14.77 dB 2:10 04-Yoga Is as Yoga Does
DR11 0.00 dB -14.80 dB 1:40 05-Riding the Rainbow
DR10 -0.89 dB -12.89 dB 2:07 06-Fools Fall In Love
DR12 -0.03 dB -14.98 dB 2:51 07-The Love Machine
DR11 -0.46 dB -15.75 dB 1:52 08-Home Is Where the Heart Is
DR10 -0.95 dB -12.54 dB 2:19 09-You Gotta Stop
DR12 -0.26 dB -14.27 dB 2:05 10-If You Think I Don't Need You
––––––––––––––––––––––––––––––––––––––––

Number of tracks: 10
Official DR value: DR11

Samplerate: 96000 Hz
Channels: 2
Bits per sample: 24
Bitrate: 2963 kbps
Codec: FLAC
================================================================================



Elvis Presley - The Complete '70s Albums Collection (2015) [Official Digital Download 24/96]

Elvis Presley - Elvis Sings The Wonderful World Of Christmas (1971/2015) [Disc 09]
FLAC (tracks) 24-bit/96 kHz | Time - 35:14 minutes | 774 MB
Studio Master, Official Digital Download | Artwork: Front cover

Tracklist:

01 - O Come, All Ye Faithful
02 - The First Noel
03 - On a Snowy Christmas Night
04 - Winter Wonderland
05 - The Wonderful World of Christmas
06 - It Won't Seem Like Christmas (Without You)
07 - I'll Be Home On Christmas Day
08 - If I Get Home On Christmas Day
09 - Holly Leaves and Christmas Trees
10 - Merry Christmas Baby
11 - Silver Bells
12 - If Every Day Was Like Christmas

Analyzed: Elvis Presley / Elvis Sings The Wonderful World Of Christmas
––––––––––––––––––––––––––––––––––––––––

DR Peak RMS Duration Track
––––––––––––––––––––––––––––––––––––––––
DR13 -0.02 dB -17.90 dB 2:51 01-O Come, All Ye Faithful
DR10 0.00 dB -13.63 dB 2:14 02-The First Noel
DR12 0.00 dB -15.48 dB 2:52 03-On a Snowy Christmas Night
DR13 0.00 dB -15.46 dB 2:21 04-Winter Wonderland
DR11 0.00 dB -16.42 dB 2:00 05-The Wonderful World of Christmas
DR11 0.00 dB -13.39 dB 2:44 06-It Won't Seem Like Christmas (Without You)
DR11 0.00 dB -14.34 dB 3:51 07-I'll Be Home On Christmas Day
DR12 -0.02 dB -16.34 dB 2:55 08-If I Get Home On Christmas Day
DR12 0.00 dB -14.63 dB 2:16 09-Holly Leaves and Christmas Trees
DR12 -0.55 dB -16.26 dB 5:47 10-Merry Christmas Baby
DR11 0.00 dB -13.11 dB 2:30 11-Silver Bells
DR10 0.00 dB -13.61 dB 2:53 12-If Every Day Was Like Christmas
––––––––––––––––––––––––––––––––––––––––

Number of tracks: 12
Official DR value: DR12

Samplerate: 96000 Hz
Channels: 2
Bits per sample: 24
Bitrate: 3040 kbps
Codec: FLAC
================================================================================



Elvis Presley - The Complete '70s Albums Collection (2015) [Official Digital Download 24/96]

Elvis Presley - Elvis Now (1972/2015) [Disc 10]
FLAC (tracks) 24-bit/96 kHz | Time - 33:02 minutes | 729 MB
Studio Master, Official Digital Download | Artwork: Front cover

Tracklist:

01 - Help Me Make It Through the Night
02 - Miracle of the Rosary
03 - Hey Jude
04 - Put Your Hand In the Hand
05 - Until It's Time for You to Go
06 - We Can Make the Morning
07 - Early Mornin' Rain
08 - Sylvia
09 - Fools Rush In (Where Angels Fear to Tread)
10 - I Was Born About Ten Thousand Years Ago

Analyzed: Elvis Presley / Elvis Now
––––––––––––––––––––––––––––––––––––––––

DR Peak RMS Duration Track
––––––––––––––––––––––––––––––––––––––––
DR13 0.00 dB -15.78 dB 2:51 01-Help Me Make It Through the Night
DR11 -0.52 dB -15.97 dB 1:54 02-Miracle of the Rosary
DR11 -2.26 dB -17.46 dB 4:36 03-Hey Jude
DR12 -0.35 dB -14.28 dB 3:19 04-Put Your Hand In the Hand
DR11 -0.80 dB -16.11 dB 4:02 05-Until It's Time for You to Go
DR12 0.00 dB -15.31 dB 3:58 06-We Can Make the Morning
DR12 -2.68 dB -17.06 dB 3:00 07-Early Mornin' Rain
DR11 -1.50 dB -16.84 dB 3:20 08-Sylvia
DR12 0.00 dB -16.09 dB 2:46 09-Fools Rush In (Where Angels Fear to Tread)
DR12 -2.65 dB -16.74 dB 3:15 10-I Was Born About Ten Thousand Years Ago
––––––––––––––––––––––––––––––––––––––––

Number of tracks: 10
Official DR value: DR12

Samplerate: 96000 Hz
Channels: 2
Bits per sample: 24
Bitrate: 3052 kbps
Codec: FLAC
================================================================================



Elvis Presley - The Complete '70s Albums Collection (2015) [Official Digital Download 24/96]

Elvis Presley - He Touched Me (1972/2015) [Disc 11]
FLAC (tracks) 24-bit/96 kHz | Time - 30:56 minutes | 682 MB
Studio Master, Official Digital Download | Artwork: Front cover

Tracklist:

01 - He Touched Me
02 - I've Got Confidence
03 - Amazing Grace
04 - Seeing Is Believing
05 - He Is My Everything
06 - Bosom of Abraham
07 - An Evening Prayer
08 - Lead Me, Guide Me
09 - There Is No God But God
10 - A Thing Called Love
11 - I, John
12 - Reach Out to Jesus

Analyzed: Elvis Presley / He Touched Me
––––––––––––––––––––––––––––––––––––––––

DR Peak RMS Duration Track
––––––––––––––––––––––––––––––––––––––––
DR11 -0.25 dB -15.16 dB 2:40 01-He Touched Me
DR12 0.00 dB -13.35 dB 2:23 02-I've Got Confidence
DR10 -1.60 dB -13.63 dB 3:36 03-Amazing Grace
DR11 0.00 dB -12.71 dB 2:55 04-Seeing Is Believing
DR10 -0.08 dB -12.66 dB 2:42 05-He Is My Everything
DR11 -1.19 dB -13.54 dB 1:38 06-Bosom of Abraham
DR9 -2.44 dB -14.31 dB 1:57 07-An Evening Prayer
DR11 -0.41 dB -14.40 dB 2:43 08-Lead Me, Guide Me
DR10 -1.97 dB -13.53 dB 2:21 09-There Is No God But God
DR11 -0.93 dB -13.78 dB 2:27 10-A Thing Called Love
DR11 -0.33 dB -13.22 dB 2:18 11-I, John
DR11 -1.37 dB -13.67 dB 3:15 12-Reach Out to Jesus
––––––––––––––––––––––––––––––––––––––––

Number of tracks: 12
Official DR value: DR11

Samplerate: 96000 Hz
Channels: 2
Bits per sample: 24
Bitrate: 2919 kbps
Codec: FLAC
================================================================================



Elvis Presley - The Complete '70s Albums Collection (2015) [Official Digital Download 24/96]

Elvis Presley - As Recorded At Madison Square Garden (1972/2015) [Disc 12]
FLAC (tracks) 24-bit/96 kHz | Time - 52:44 minutes | 1,17 GB
Studio Master, Official Digital Download | Artwork: Front cover

Tracklist:

01 - Introduction: Also Sprach Zarathustra (Theme From 2001: A Space Odyssey)
02 - That's All Right
03 - Proud Mary
04 - Never Been to Spain
05 - You Don't Have to Say You Love Me (Live)
06 - You've Lost That Lovin' Feelin'
07 - Polk Salad Annie
08 - Love Me
09 - All Shook Up
10 - Heartbreak Hotel
11 - Medley: (Let Me Be Your) Teddy Bear / Don't Be Cruel
12 - Love Me Tender
13 - The Impossible Dream (The Quest)
14 - Introductions by Elvis
15 - Hound Dog (Live)
16 - Suspicious Minds
17 - For the Good Times
18 - American Trilogy
19 - Funny How Time Slips Away (Live)
20 - I Can't Stop Loving You (Live)
21 - Can't Help Falling In Love
22 - End Theme (Orchestra)

Analyzed: Elvis Presley / As Recorded At Madison Square Garden
––––––––––––––––––––––––––––––––––––––––

DR Peak RMS Duration Track
––––––––––––––––––––––––––––––––––––––––
DR11 -2.44 dB -17.72 dB 1:05 01-Introduction: Also Sprach Zarathustra (Theme From 2001: A Space Odyssey)
DR13 -0.17 dB -14.55 dB 2:14 02-That's All Right
DR14 -0.16 dB -15.53 dB 2:46 03-Proud Mary
DR15 -0.17 dB -16.47 dB 3:27 04-Never Been to Spain
DR14 -0.17 dB -15.81 dB 2:03 05-You Don't Have to Say You Love Me (Live)
DR15 -0.16 dB -16.77 dB 4:12 06-You've Lost That Lovin' Feelin'
DR14 -0.17 dB -16.25 dB 2:59 07-Polk Salad Annie
DR16 -0.17 dB -18.33 dB 1:40 08-Love Me
DR15 -0.17 dB -16.49 dB 0:59 09-All Shook Up
DR15 -0.17 dB -17.51 dB 1:44 10-Heartbreak Hotel
DR16 -0.17 dB -16.88 dB 1:51 11-Medley: (Let Me Be Your) Teddy Bear / Don't Be Cruel
DR14 -0.17 dB -18.32 dB 1:40 12-Love Me Tender
DR14 -0.72 dB -17.48 dB 2:35 13-The Impossible Dream (The Quest)
DR16 -1.78 dB -20.51 dB 1:35 14-Introductions by Elvis
DR13 -1.44 dB -17.53 dB 1:50 15-Hound Dog (Live)
DR14 -1.32 dB -17.21 dB 4:22 16-Suspicious Minds
DR13 -3.10 dB -18.72 dB 3:10 17-For the Good Times
DR13 -0.28 dB -18.48 dB 4:32 18-American Trilogy
DR12 -3.92 dB -19.19 dB 2:42 19-Funny How Time Slips Away (Live)
DR13 -2.43 dB -16.51 dB 2:42 20-I Can't Stop Loving You (Live)
DR12 -1.66 dB -16.08 dB 1:41 21-Can't Help Falling In Love
DR14 -0.46 dB -16.09 dB 0:55 22-End Theme (Orchestra)
––––––––––––––––––––––––––––––––––––––––

Number of tracks: 22
Official DR value: DR14

Samplerate: 96000 Hz
Channels: 2
Bits per sample: 24
Bitrate: 3160 kbps
Codec: FLAC
================================================================================



Elvis Presley - The Complete '70s Albums Collection (2015) [Official Digital Download 24/96]

Elvis Presley - Aloha From Hawaii Via Satellite (1973/2015) [Disc 13]
FLAC (tracks) 24-bit/96 kHz | Time - 62:18 minutes | 1,35 GB
Studio Master, Official Digital Download | Artwork: Front cover

Tracklist:

01 - Introduction: Also Sprach Zarathustra (Theme from 2001: A Space Odyssey)
02 - See See Rider
03 - Burning Love
04 - Something
05 - You Gave Me a Mountain
06 - Steamroller Blues
07 - My Way
08 - Love Me
09 - Johnny B. Goode
10 - It's Over
11 - Blue Suede Shoes
12 - I'm So Lonesome I Could Cry
13 - I Can't Stop Loving You
14 - Hound Dog
15 - What Now My Love
16 - Fever
17 - Welcome to My World
18 - Suspicious Minds
19 - Introductions by Elvis
20 - I'll Remember You
21 - Medley
22 - An American Trilogy
23 - A Big Hunk O' Love
24 - Can't Help Falling In Love

Live at the Honolulu International Center.

Analyzed: Elvis Presley / Aloha From Hawaii Via Satellite
––––––––––––––––––––––––––––––––––––––––

DR Peak RMS Duration Track
––––––––––––––––––––––––––––––––––––––––
DR10 -1.53 dB -17.09 dB 1:12 01-Introduction: Also Sprach Zarathustra (Theme from 2001: A Space Odyssey) (Live at the Honolulu International Center)
DR11 0.00 dB -13.63 dB 3:00 02-See See Rider (Live at the Honolulu International Center)
DR11 -0.02 dB -13.78 dB 3:11 03-Burning Love (Live at the Honolulu International Center)
DR12 -0.29 dB -16.25 dB 3:32 04-Something (Live at the Honolulu International Center)
DR10 -0.12 dB -14.03 dB 3:17 05-You Gave Me a Mountain (Live at the Honolulu International Center)
DR11 0.00 dB -14.30 dB 3:04 06-Steamroller Blues (Live at the Honolulu International Center)
DR11 -1.01 dB -17.26 dB 4:02 07-My Way (Live at the Honolulu International Center)
DR11 -1.36 dB -16.78 dB 1:55 08-Love Me (Live at the Honolulu International Center)
DR11 -0.72 dB -13.92 dB 1:43 09-Johnny B. Goode (Live at the Honolulu International Center)
DR11 -1.00 dB -17.03 dB 2:10 10-It's Over (Live at the Honolulu International Center)
DR11 -0.79 dB -14.44 dB 1:17 11-Blue Suede Shoes (Live at the Honolulu International Center)
DR13 -2.35 dB -19.75 dB 2:17 12-I'm So Lonesome I Could Cry (Live at the Honolulu International Center)
DR11 0.00 dB -14.77 dB 2:27 13-I Can't Stop Loving You (Live at the Honolulu International Center)
DR11 -0.15 dB -14.23 dB 0:52 14-Hound Dog (Live at the Honolulu International Center)
DR11 -0.88 dB -15.69 dB 3:17 15-What Now My Love (Live at the Honolulu International Center)
DR14 0.00 dB -17.60 dB 2:50 16-Fever (Live at the Honolulu International Center)
DR12 -0.59 dB -17.03 dB 1:55 17-Welcome to My World (Live at the Honolulu International Center)
DR11 -0.57 dB -13.98 dB 4:30 18-Suspicious Minds (Live at the Honolulu International Center)
DR14 0.00 dB -22.41 dB 1:40 19-Introductions by Elvis (Live at the Honolulu International Center)
DR12 -2.31 dB -19.57 dB 2:32 20-I'll Remember You (Live at the Honolulu International Center)
DR11 -1.21 dB -15.16 dB 2:05 21-Medley (Live at the Honolulu International Center)
DR11 0.00 dB -16.27 dB 4:34 22-An American Trilogy (Live at the Honolulu International Center)
DR11 0.00 dB -14.40 dB 2:09 23-A Big Hunk O' Love (Live at the Honolulu International Center)
DR11 0.00 dB -14.42 dB 2:48 24-Can't Help Falling In Love (Live at the Honolulu International Center)
––––––––––––––––––––––––––––––––––––––––

Number of tracks: 24
Official DR value: DR11

Samplerate: 96000 Hz
Channels: 2
Bits per sample: 24
Bitrate: 2973 kbps
Codec: FLAC
================================================================================



Elvis Presley - The Complete '70s Albums Collection (2015) [Official Digital Download 24/96]

Elvis Presley - Elvis "The Fool Album" (1973/2015) [Disc 14]
FLAC (tracks) 24-bit/96 kHz | Time - 25:54 minutes | 568 MB
Studio Master, Official Digital Download | Artwork: Front cover

Tracklist:

01 - Fool
02 - Where Do I Go from Here
03 - Love Me, Love The Life I Lead
04 - It's Still Here
05 - It's Impossible
06 - (That's What You Get) For Lovin' Me
07 - Padre
08 - I'll Take You Home Again Kathleen
09 - I Will Be True
10 - Don't Think Twice, It's All Right

Analyzed: Elvis Presley / Elvis (The Fool Album)
––––––––––––––––––––––––––––––––––––––––

DR Peak RMS Duration Track
––––––––––––––––––––––––––––––––––––––––
DR11 0.00 dB -14.42 dB 2:45 01-Fool
DR11 -0.15 dB -13.70 dB 2:42 02-Where Do I Go from Here
DR13 -0.75 dB -16.40 dB 3:05 03-Love Me, Love The Life I Lead
DR12 -1.88 dB -17.67 dB 2:06 04-It's Still Here
DR11 -0.50 dB -14.39 dB 2:53 05-It's Impossible
DR10 -1.02 dB -13.28 dB 2:11 06-(That's What You Get) For Lovin' Me
DR11 -0.28 dB -16.28 dB 2:30 07-Padre
DR11 -1.22 dB -17.09 dB 2:28 08-I'll Take You Home Again Kathleen
DR12 -1.63 dB -18.69 dB 2:32 09-I Will Be True
DR13 -0.41 dB -15.80 dB 2:44 10-Don't Think Twice, It's All Right
––––––––––––––––––––––––––––––––––––––––

Number of tracks: 10
Official DR value: DR12

Samplerate: 96000 Hz
Channels: 2
Bits per sample: 24
Bitrate: 2968 kbps
Codec: FLAC
================================================================================



Elvis Presley - The Complete '70s Albums Collection (2015) [Official Digital Download 24/96]

Elvis Presley - Raised On Rock / For Ol' Times Sake (1973/2015) [Disc 15]
FLAC (tracks) 24-bit/96 kHz | Time - 27:57 minutes | 600 MB
Studio Master, Official Digital Download | Artwork: Front cover

Tracklist:

01 - Raised On Rock
02 - Are You Sincere
03 - Find Out What's Happening
04 - I Miss You
05 - Girl of Mine
06 - For Ol' Times Sake
07 - If You Don't Come Back
08 - Just a Little Bit
09 - Sweet Angeline
10 - Three Corn Patches

Analyzed: Elvis Presley / Raised On Rock / For Ol' Times Sake
––––––––––––––––––––––––––––––––––––––––

DR Peak RMS Duration Track
––––––––––––––––––––––––––––––––––––––––
DR11 -0.35 dB -14.74 dB 2:43 01-Raised On Rock
DR10 -3.24 dB -15.50 dB 2:03 02-Are You Sincere
DR11 -1.27 dB -15.65 dB 2:33 03-Find Out What's Happening
DR9 -2.56 dB -14.18 dB 2:19 04-I Miss You
DR12 -0.10 dB -15.66 dB 3:42 05-Girl of Mine
DR13 -1.08 dB -17.08 dB 3:38 06-For Ol' Times Sake
DR12 -0.86 dB -16.64 dB 2:33 07-If You Don't Come Back
DR13 -0.44 dB -16.63 dB 2:34 08-Just a Little Bit
DR12 -1.87 dB -17.07 dB 3:05 09-Sweet Angeline
DR11 -2.23 dB -15.47 dB 2:47 10-Three Corn Patches
––––––––––––––––––––––––––––––––––––––––

Number of tracks: 10
Official DR value: DR11

Samplerate: 96000 Hz
Channels: 2
Bits per sample: 24
Bitrate: 2941 kbps
Codec: FLAC
================================================================================



Elvis Presley - The Complete '70s Albums Collection (2015) [Official Digital Download 24/96]

Elvis Presley - Good Times (1974/2015) [Disc 16]
FLAC (tracks) 24-bit/96 kHz | Time - 30:08 minutes | 652 MB
Studio Master, Official Digital Download | Artwork: Front cover

Tracklist:

01 - Take Good Care of Her
02 - Loving Arms
03 - I Got a Feelin' in My Body
04 - If That Isn't Love
05 - She Wears My Ring
06 - I've Got a Thing About You Baby
07 - My Boy
08 - Spanish Eyes
09 - Talk About the Good Times
10 - Good Time Charlie's Got the Blues

Analyzed: Elvis Presley / Good Times
––––––––––––––––––––––––––––––––––––––––

DR Peak RMS Duration Track
––––––––––––––––––––––––––––––––––––––––
DR11 0.00 dB -15.44 dB 2:54 01-Take Good Care of Her
DR12 -0.66 dB -17.03 dB 2:52 02-Loving Arms
DR12 0.00 dB -14.28 dB 3:36 03-I Got a Feelin' in My Body
DR11 0.00 dB -14.57 dB 3:32 04-If That Isn't Love
DR11 0.00 dB -14.55 dB 3:24 05-She Wears My Ring
DR12 -1.58 dB -16.79 dB 2:23 06-I've Got a Thing About You Baby
DR11 -1.04 dB -15.67 dB 3:22 07-My Boy
DR11 0.00 dB -14.96 dB 2:25 08-Spanish Eyes
DR10 -0.47 dB -14.41 dB 2:27 09-Talk About the Good Times
DR12 -1.73 dB -16.89 dB 3:10 10-Good Time Charlie's Got the Blues
––––––––––––––––––––––––––––––––––––––––

Number of tracks: 10
Official DR value: DR11

Samplerate: 96000 Hz
Channels: 2
Bits per sample: 24
Bitrate: 2816 kbps
Codec: FLAC
================================================================================



Elvis Presley - The Complete '70s Albums Collection (2015) [Official Digital Download 24/96]

Elvis Presley - Recorded Live On Stage In Memphis (1974/2015) [Disc 17]
FLAC (tracks) 24-bit/96 kHz | Time - 42:03 minutes | 958 MB
Studio Master, Official Digital Download | Artwork: Front cover

Tracklist:

01 - See See Rider
02 - I Got a Woman
03 - Love Me
04 - Trying to Get to You
05 - Medley
06 - Why Me Lord
07 - How Great Thou Art
08 - Medley (Live)
09 - Help Me
10 - An American Trilogy
11 - Let Me Be There
12 - My Baby Left Me
13 - Lawdy Miss Clawdy
14 - Can't Help Falling In Love
15 - Closing-Vamp

Live at Midsouth Coliseum.

Analyzed: Elvis Presley / Recorded Live On Stage In Memphis
––––––––––––––––––––––––––––––––––––––––

DR Peak RMS Duration Track
––––––––––––––––––––––––––––––––––––––––
DR12 0.00 dB -13.70 dB 3:10 01-See See Rider (Live at Midsouth Coliseum)
DR11 0.00 dB -14.73 dB 4:12 02-I Got a Woman (Live at Midsouth Coliseum)
DR11 -0.97 dB -15.83 dB 1:58 03-Love Me (Live at Midsouth Coliseum)
DR11 -0.46 dB -14.69 dB 2:21 04-Trying to Get to You (Live at Midsouth Coliseum)
DR10 0.00 dB -11.90 dB 3:33 05-Medley (Live at Midsouth Coliseum)
DR11 0.00 dB -14.88 dB 2:51 06-Why Me Lord (Live at Midsouth Coliseum)
DR11 -0.50 dB -15.26 dB 3:43 07-How Great Thou Art (Live at Midsouth Coliseum)
DR10 -0.11 dB -13.82 dB 3:00 08-Medley (Live)
DR12 -0.69 dB -16.28 dB 2:42 09-Help Me (Live at Midsouth Coliseum)
DR10 -0.34 dB -15.29 dB 3:57 10-An American Trilogy (Live at Midsouth Coliseum)
DR11 -0.30 dB -13.54 dB 3:34 11-Let Me Be There (Live at Midsouth Coliseum)
DR11 -0.39 dB -13.74 dB 2:22 12-My Baby Left Me (Live at Midsouth Coliseum)
DR11 -1.48 dB -14.79 dB 1:57 13-Lawdy Miss Clawdy (Live at Midsouth Coliseum)
DR10 -0.48 dB -14.22 dB 1:53 14-Can't Help Falling In Love (Live at Midsouth Coliseum)
DR10 0.00 dB -12.49 dB 0:48 15-Closing-Vamp (Live at Midsouth Coliseum)
––––––––––––––––––––––––––––––––––––––––

Number of tracks: 15
Official DR value: DR11

Samplerate: 96000 Hz
Channels: 2
Bits per sample: 24
Bitrate: 3043 kbps
Codec: FLAC
================================================================================



Elvis Presley - The Complete '70s Albums Collection (2015) [Official Digital Download 24/96]

Elvis Presley - Promised Land (1975/2015) [Disc 18]
FLAC (tracks) 24-bit/96 kHz | Time - 28:50 minutes | 619 MB
Studio Master, Official Digital Download | Artwork: Front cover

Tracklist:

01 - Promised Land
02 - There's a Honky Tonk Angel (Who Will Take Me Back In)
03 - Help Me
04 - Mr. Songman
05 - Love Song of the Year
06 - It's Midnight
07 - Your Love's Been a Long Time Coming
08 - If You Talk In Your Sleep
09 - Thinking About You
10 - You Asked Me To

Analyzed: Elvis Presley / Promised Land
––––––––––––––––––––––––––––––––––––––––

DR Peak RMS Duration Track
––––––––––––––––––––––––––––––––––––––––
DR11 -0.37 dB -14.09 dB 2:56 01-Promised Land
DR11 -1.73 dB -15.67 dB 3:04 02-There's a Honky Tonk Angel (Who Will Take Me Back In)
DR10 0.00 dB -14.06 dB 2:32 03-Help Me
DR12 -1.08 dB -16.15 dB 2:09 04-Mr. Songman
DR11 -1.40 dB -16.38 dB 3:20 05-Love Song of the Year
DR11 -2.39 dB -17.60 dB 3:25 06-It's Midnight
DR11 -0.61 dB -16.09 dB 2:57 07-Your Love's Been a Long Time Coming
DR13 -0.71 dB -16.73 dB 2:31 08-If You Talk In Your Sleep
DR11 -0.68 dB -16.55 dB 3:05 09-Thinking About You
DR12 -0.12 dB -16.35 dB 2:52 10-You Asked Me To
––––––––––––––––––––––––––––––––––––––––

Number of tracks: 10
Official DR value: DR11

Samplerate: 96000 Hz
Channels: 2
Bits per sample: 24
Bitrate: 2887 kbps
Codec: FLAC
================================================================================



Elvis Presley - The Complete '70s Albums Collection (2015) [Official Digital Download 24/96]

Elvis Presley - Today (1975/2015) [Disc 19]
FLAC (tracks) 24-bit/96 kHz | Time - 34:03 minutes | 728 MB
Studio Master, Official Digital Download | Artwork: Front cover

Tracklist:

01 - T-R-O-U-B-L-E
02 - And I Love You So
03 - Susan When She Tried
04 - Woman Without Love
05 - Shake a Hand
06 - Pieces of My Life
07 - Fairytale
08 - I Can Help
09 - Bringin' It Back
10 - Green, Green Grass of Home

Analyzed: Elvis Presley / Today
––––––––––––––––––––––––––––––––––––––––

DR Peak RMS Duration Track
––––––––––––––––––––––––––––––––––––––––
DR13 0.00 dB -14.56 dB 3:05 01-T-R-O-U-B-L-E
DR12 0.00 dB -15.66 dB 3:40 02-And I Love You So
DR13 0.00 dB -15.89 dB 2:18 03-Susan When She Tried
DR13 0.00 dB -16.68 dB 3:35 04-Woman Without Love
DR14 0.00 dB -16.57 dB 3:50 05-Shake a Hand
DR13 -0.51 dB -18.87 dB 4:05 06-Pieces of My Life
DR13 -0.25 dB -15.85 dB 2:45 07-Fairytale
DR13 0.00 dB -14.85 dB 4:05 08-I Can Help
DR13 0.00 dB -16.77 dB 3:03 09-Bringin' It Back
DR12 -0.13 dB -15.68 dB 3:37 10-Green, Green Grass of Home
––––––––––––––––––––––––––––––––––––––––

Number of tracks: 10
Official DR value: DR13

Samplerate: 96000 Hz
Channels: 2
Bits per sample: 24
Bitrate: 2820 kbps
Codec: FLAC
================================================================================



Elvis Presley - The Complete '70s Albums Collection (2015) [Official Digital Download 24/96]

Elvis Presley - From Elvis Presley Boulevard, Memphis, Tennessee (1976/2015) [Disc 20]
FLAC (tracks) 24-bit/96 kHz | Time - 35:11 minutes | 772 MB
Studio Master, Official Digital Download | Artwork: Front cover

Tracklist:

01 - Hurt
02 - Never Again
03 - Blue Eyes Crying In the Rain
04 - Danny Boy
05 - The Last Farewell
06 - For the Heart
07 - Bitter They Are, Harder They Fall
08 - Solitaire
09 - Love Coming Down
10 - I'll Never Fall In Love Again

Analyzed: Elvis Presley / From Elvis Presley Boulevard, Memphis, Tennessee
––––––––––––––––––––––––––––––––––––––––

DR Peak RMS Duration Track
––––––––––––––––––––––––––––––––––––––––
DR10 -0.44 dB -12.52 dB 2:10 01-Hurt
DR10 0.00 dB -12.45 dB 2:53 02-Never Again
DR11 0.00 dB -12.99 dB 3:45 03-Blue Eyes Crying In the Rain
DR11 -0.82 dB -16.88 dB 4:00 04-Danny Boy
DR11 -0.08 dB -13.67 dB 4:05 05-The Last Farewell
DR9 -0.02 dB -11.94 dB 3:24 06-For the Heart
DR10 0.00 dB -13.13 dB 3:19 07-Bitter They Are, Harder They Fall
DR12 0.00 dB -14.66 dB 4:42 08-Solitaire
DR11 0.00 dB -13.25 dB 3:09 09-Love Coming Down
DR10 0.00 dB -12.23 dB 3:44 10-I'll Never Fall In Love Again
––––––––––––––––––––––––––––––––––––––––

Number of tracks: 10
Official DR value: DR10

Samplerate: 96000 Hz
Channels: 2
Bits per sample: 24
Bitrate: 2983 kbps
Codec: FLAC
================================================================================



Elvis Presley - The Complete '70s Albums Collection (2015) [Official Digital Download 24/96]

Elvis Presley - Moody Blue (1977/2015) [Disc 21]
FLAC (tracks) 24-bit/96 kHz | Time - 31:29 minutes | 692 MB
Studio Master, Official Digital Download | Artwork: Front cover

Tracklist:

01 - Unchained Melody (Live)
02 - If You Love Me (Let Me Know) (Live)
03 - Little Darlin'
04 - He'll Have to Go
05 - Let Me Be There
06 - Way Down
07 - Pledging My Love
08 - Moody Blue
09 - She Thinks I Still Care
10 - It's Easy for You

Analyzed: Elvis Presley / Moody Blue
––––––––––––––––––––––––––––––––––––––––

DR Peak RMS Duration Track
––––––––––––––––––––––––––––––––––––––––
DR10 -0.76 dB -15.72 dB 2:35 01-Unchained Melody (Live)
DR11 -0.25 dB -14.52 dB 3:01 02-If You Love Me (Let Me Know) (Live)
DR11 -0.61 dB -13.64 dB 1:56 03-Little Darlin'
DR12 -0.88 dB -15.17 dB 4:35 04-He'll Have to Go
DR9 -0.59 dB -12.16 dB 3:37 05-Let Me Be There
DR13 -0.24 dB -15.85 dB 2:41 06-Way Down
DR13 0.00 dB -15.76 dB 2:54 07-Pledging My Love
DR11 0.00 dB -12.87 dB 2:52 08-Moody Blue
DR11 0.00 dB -14.41 dB 3:53 09-She Thinks I Still Care
DR12 0.00 dB -15.12 dB 3:27 10-It's Easy for You
––––––––––––––––––––––––––––––––––––––––

Number of tracks: 10
Official DR value: DR11

Samplerate: 96000 Hz
Channels: 2
Bits per sample: 24
Bitrate: 2950 kbps
Codec: FLAC
================================================================================


Thanks to the Original customer!