Tags
Language
Tags

Emile Parisien Quartet - Spezial Snack (2014) [Official Digital Download]

Posted By: HDV
Emile Parisien Quartet - Spezial Snack (2014) [Official Digital Download]

Emile Parisien Quartet - Spezial Snack (2014)
FLAC (tracks) 24-bit/44,1 kHz | Time - 46:39 minutes | 309 MB
Studio Master, Official Digital Download | Artwork: Digital booklet

This quartet is the heir to those experimenters who opened wide the windows onto codified genres, both in music and elsewhere. The group hasn't plundered their aesthetic, but transposed their approach onto our own, ultra-referenced time. It has chosen the most radical path, and is our indispensable contemporary.


Ten years have gone by since this quartet — under a name of pure convenience — undertook the Suite for the first time, a jubilant voyage through varying climates which the quartet covered in a flux of juvenile energy, constant musical tension, and that palpable feeling of urgency… one could sense it inside the heady scents of the pleasure of collective playing. The ensemble was acoustic, the current electric, and the voltage high. It was a miraculous moment and it had the taste of a first experiment. At the time, the quartet was still expressing itself in the language of swing, delivering a wild, hard bop enlivened by brief outbursts of free and other, modern, jarring discordance. It had a fossilized radiance. While Spezial snack seems today to be light-years distant from the music offered at the time, the trajectory taking the group to this new terra incognita still has logic. Remaining intact, the identity of the group has simply matured over the course of some stern questioning. Haricot-guide, the latest opus in their cartoon-esque vein (urge versus narration), is an implacable demonstration of this.

Tracklist:

01 - Potofen
02 - Haricot Guide
03 - Mazout Damnation
04 - Les Flics de la Police
05 - François

Produced by the Emile Parisien Quartet.
Recorded in April 2014 at Studios La Buissonne by Gérard de Haro, assisted by Nicolas Baillard.
Mixed by Sylvain Thevenard. Mastered by Klaus Scheuermann.

Musicians:
Emile Parisien - soprano & tenor sax
Julien Touéry - piano & prepared piano
Ivan Gélugne - bass
Sylvain Darrifourcq - drums, percussion, zither

Analyzed: Emile Parisien Quartet / Spezial Snack
––––––––––––––––––––––––––––––––––––––––

DR Peak RMS Duration Track
––––––––––––––––––––––––––––––––––––––––
DR10 0.00 dB -14.15 dB 9:36 01-Potofen
DR10 0.00 dB -14.55 dB 10:23 02-Haricot Guide
DR9 0.00 dB -14.51 dB 12:02 03-Mazout Damnation
DR11 -0.01 dB -13.53 dB 8:01 04-Les Flics de la Police
DR10 0.00 dB -13.57 dB 6:36 05-François
––––––––––––––––––––––––––––––––––––––––

Number of tracks: 5
Official DR value: DR10

Samplerate: 44100 Hz
Channels: 2
Bits per sample: 24
Bitrate: 908 kbps
Codec: FLAC
================================================================================


Thanks to the Original customer!