Emmylou Harris - The 70s Studio Album Collection (2014) [Official Digital Download 24bit/192kHz] RE-UP

Posted By: HDV
Emmylou Harris - The 70s Studio Album Collection (2014) [Official Digital Download 24bit/192kHz] RE-UP

Emmylou Harris - The 70s Studio Album Collection (2014)
FLAC (tracks) 24 bit/192 kHz | Time - 222:45 minutes | 8,03 GB
Studio Master, Official Digital Download | Artwork: Front cover(s)

Already celebrated as a discoverer and interpreter of other artists’ songs, 13-time Grammy Award winner Emmylou Harris has, in the last decade, gained admiration as much for her eloquently straightforward songwriting as for her incomparably expressive singing. This collection transports you back to a time, featuring some of Emmylou's most memorable titles from the 1970s.

Already celebrated as a discoverer and interpreter of other artists’ songs, 12-time Grammy Award winner Emmylou Harris has, in the last decade, gained admiration as much for her eloquently straightforward songwriting as for her incomparably expressive singing. As well as leading a successful solo career, Harris has worked with a wide spectrum of musical luminaries, including Gram Parsons, Linda Ronstadt, Dolly Parton, Mark Knopfler, Willie Nelson, Bob Dylan, and Neil Young. A 12-time Grammy winner, she was also a Billboard's Century Award recipient in 1999 and has been inducted into both The Country Music Hall of Fame and The Academy of Arts and Sciences. She was also named one of VH1's "100 Most Influential Women in Rock and Roll."


Emmylou Harris - The 70s Studio Album Collection (2014) [Official Digital Download 24bit/192kHz] RE-UP

Emmylou Harris - Pieces Of The Sky (1975/2014)
FLAC (tracks) 24 bit/192 kHz | Time - 38:00 minutes | 1,36 GB
Studio Master, Official Digital Download | Artwork: Front cover

Emmylou Harris - The 70s Studio Album Collection (2014) [Official Digital Download 24bit/192kHz] RE-UP

Emmylou Harris' major-label solo debut quickly establishes the pattern that the vast majority of her subsequent work would follow: Pieces of the Sky is bravely eclectic, impeccably performed, and achingly beautiful. Amid a collection of songs that ranks among her most well-chosen – ranging from the catalogs of the Beatles ("For No One") to Boudleaux and Felice Bryant ("Sleepless Nights") and the Louvin Brothers (the hit "If I Could Only Win Your Love") – the record's centerpiece is one of Harris' rare original compositions, "Boulder to Birmingham," her stirring tribute to fallen mentor Gram Parsons.

Tracklist:

01 - Bluebird Wine
02 - Too Far Gone
03 - If I Could Only Win Your Love
04 - Boulder To Birmingham
05 - Before Believing
06 - Bottle Let Me Down
07 - Sleepless Nights
08 - Coat Of Many Colors
09 - For No One
10 - Queen Of The Silver Dollar

Analyzed: Emmylou Harris / Pieces of the Sky (The 70's Studio Album Collection)
––––––––––––––––––––––––––––––––––––––––

DR Peak RMS Duration Track
––––––––––––––––––––––––––––––––––––––––
DR11 -0.10 dB -15.19 dB 3:19 01-Bluebird Wine
DR12 -0.20 dB -16.50 dB 4:07 02-Too Far Gone
DR13 -0.20 dB -15.75 dB 2:37 03-If I Could Only Win Your Love
DR13 -0.20 dB -17.96 dB 3:37 04-Boulder To Birmingham
DR13 -3.12 dB -19.76 dB 4:46 05-Before Believing
DR11 -1.70 dB -15.28 dB 3:20 06-Bottle Let Me Down
DR12 -1.73 dB -16.64 dB 3:29 07-Sleepless Nights
DR11 -1.70 dB -16.19 dB 3:44 08-Coat Of Many Colors
DR11 -3.67 dB -18.54 dB 3:44 09-For No One
DR12 -1.70 dB -16.90 dB 5:17 10-Queen Of The Silver Dollar
––––––––––––––––––––––––––––––––––––––––

Number of tracks: 10
Official DR value: DR12

Samplerate: 192000 Hz
Channels: 2
Bits per sample: 24
Bitrate: 5003 kbps
Codec: FLAC
================================================================================



Emmylou Harris - The 70s Studio Album Collection (2014) [Official Digital Download 24bit/192kHz] RE-UP

Emmylou Harris - Elite Hotel (1975/2014)
FLAC (tracks) 24 bit/192 kHz | Time - 43:54 minutes | 1,59 GB
Studio Master, Official Digital Download | Artwork: Front cover

While Emmylou Harris spent much of her career carrying on the legacy of Gram Parsons, Elite Hotel ranks among her most overt tributes to his genius, thanks to its covers of the Flying Burrito Brothers' "Sin City" and "Wheels," along with "Ooh Las Vegas" from the Grievous Angel album. In addition to the usual eclectic mix of covers – which includes the Beatles' "Here, There and Everywhere" and Hank Williams' "Jambalaya" this time out – Elite Hotel offers renditions of the country perennials "Together Again" and "Sweet Dreams," which were, respectively, Harris' first two number one chart hits.

Tracklist:

01 - Amarillo
02 - Together Again
03 - Feelin' Single - Seein' Double
04 - Sin City
05 - One Of These Days
06 - Till I Gain Control Again
07 - Here, There And Everywhere
08 - Ooh Las Vegas
09 - Sweet Dreams
10 - Jambalaya
11 - Satan's Crown Jewel
12 - Wheels

Analyzed: Emmylou Harris / Elite Hotel (The 70's Studio Album Collection)
––––––––––––––––––––––––––––––––––––––––

DR Peak RMS Duration Track
––––––––––––––––––––––––––––––––––––––––
DR12 -1.94 dB -16.53 dB 3:07 01-Amarillo
DR13 -0.50 dB -17.85 dB 4:01 02-Together Again
DR12 -0.10 dB -14.37 dB 2:37 03-Feelin' Single - Seein' Double
DR12 -1.13 dB -18.11 dB 4:02 04-Sin City
DR12 -0.52 dB -16.01 dB 3:08 05-One Of These Days
DR13 -1.48 dB -18.96 dB 5:37 06-Till I Gain Control Again
DR12 -2.14 dB -18.45 dB 3:47 07-Here, There And Everywhere
DR12 -0.10 dB -14.09 dB 3:45 08-Ooh Las Vegas
DR13 -1.53 dB -17.88 dB 4:08 09-Sweet Dreams
DR12 -0.81 dB -16.02 dB 3:12 10-Jambalaya
DR13 -4.17 dB -21.55 dB 3:19 11-Satan's Crown Jewel
DR12 -0.40 dB -14.34 dB 3:12 12-Wheels
––––––––––––––––––––––––––––––––––––––––

Number of tracks: 12
Official DR value: DR12

Samplerate: 192000 Hz
Channels: 2
Bits per sample: 24
Bitrate: 5075 kbps
Codec: FLAC
================================================================================



Emmylou Harris - The 70s Studio Album Collection (2014) [Official Digital Download 24bit/192kHz] RE-UP

Emmylou Harris - Luxury Liner (1977/2014)
FLAC (tracks) 24 bit/192 kHz | Time - 39:05 minutes | 1,35 GB
Studio Master, Official Digital Download | Artwork: Front cover

Luxury Liner ranks as Emmylou Harris' best-selling solo record to date, and it's one of her most engaging efforts as well; her Hot Band is in peak form, and the songs are even more far afield than usual, including Chuck Berry's "(You Never Can Tell) C'est la Vie" and Townes Van Zandt's painterly tale of aging outlaws, "Pancho & Lefty."

Tracklist:

01 - Luxury Liner
02 - Pancho & Lefty
03 - Making Believe
04 - You're Supposed To Be Feeling Good
05 - I'll Be Your San Antone Rose
06 - (You Never Can Tell) C'est La Vie
07 - When I Stop Dreaming
08 - Hello Stranger
09 - She
10 - Tulsa Queen

Analyzed: Emmylou Harris / Luxury Liner (The 70's Studio Album Collection)
––––––––––––––––––––––––––––––––––––––––

DR Peak RMS Duration Track
––––––––––––––––––––––––––––––––––––––––
DR12 -1.26 dB -16.10 dB 3:42 01-Luxury Liner
DR13 -2.44 dB -18.28 dB 4:53 02-Pancho & Lefty
DR12 -2.36 dB -18.51 dB 3:38 03-Making Believe
DR14 -1.46 dB -20.53 dB 4:06 04-You're Supposed To Be Feeling Good
DR13 -2.18 dB -18.14 dB 3:46 05-I'll Be Your San Antone Rose
DR13 -1.00 dB -15.64 dB 3:32 06-(You Never Can Tell) C'est La Vie
DR12 -2.33 dB -18.44 dB 3:18 07-When I Stop Dreaming
DR13 -1.30 dB -17.43 dB 4:02 08-Hello Stranger
DR14 -1.00 dB -17.73 dB 3:21 09-She
DR13 -1.00 dB -17.29 dB 4:49 10-Tulsa Queen
––––––––––––––––––––––––––––––––––––––––

Number of tracks: 10
Official DR value: DR13

Samplerate: 192000 Hz
Channels: 2
Bits per sample: 24
Bitrate: 4710 kbps
Codec: FLAC
================================================================================



Emmylou Harris - The 70s Studio Album Collection (2014) [Official Digital Download 24bit/192kHz] RE-UP

Emmylou Harris - Quarter Moon In A Ten Cent Town (1978/2014)
FLAC (tracks) 24 bit/192 kHz | Time - 36:14 minutes | 1,34 GB
Studio Master, Official Digital Download | Artwork: Front cover

Quarter Moon in a Ten Cent Town is a transitional effort that bridges the curveballs of Emmylou Harris' earliest solo work with the more traditional country albums that comprise the bulk of the second phase of her career. For the first time, she covers no Gram Parsons tunes or pop music chestnuts, relying instead on newly exited Hot Band member Rodney Crowell for two songs ("Leaving Louisiana in the Broad Daylight" and "I Ain't Living Long Like This") and Dolly Parton for another (the devastating "To Daddy"); the highlight is a gorgeous cover of Jesse Winchester's "Defying Gravity".

Tracklist:

01 - Easy From Now On
02 - Two More Bottles Of Wine
03 - To Daddy
04 - My Songbird
05 - Leaving Louisiana In The Broad Daylight
06 - Defying Gravity
07 - I Ain't Living Long Like This
08 - One Paper Kid (with Willie Nelson)
09 - Green Rolling Hills (with Fayssoux Starling)
10 - Burn That Candle

Analyzed: Emmylou Harris / Quarter Moon In a Ten Cent Town (The 70's Studio Album Collection)
––––––––––––––––––––––––––––––––––––––––

DR Peak RMS Duration Track
––––––––––––––––––––––––––––––––––––––––
DR13 -0.10 dB -15.89 dB 3:07 01-Easy From Now On
DR13 -0.10 dB -15.15 dB 3:11 02-Two More Bottles Of Wine
DR13 -1.71 dB -18.93 dB 2:51 03-To Daddy
DR13 -0.42 dB -17.49 dB 3:11 04-My Songbird
DR14 -0.10 dB -16.52 dB 4:22 05-Leaving Louisiana In The Broad Daylight
DR14 -0.10 dB -17.32 dB 4:18 06-Defying Gravity
DR14 -0.10 dB -16.36 dB 4:10 07-I Ain't Living Long Like This
DR14 -3.00 dB -21.65 dB 3:00 08-One Paper Kid (with Willie Nelson)
DR13 -0.27 dB -18.31 dB 3:41 09-Green Rolling Hills (with Fayssoux Starling)
DR13 -1.22 dB -17.39 dB 4:25 10-Burn That Candle
––––––––––––––––––––––––––––––––––––––––

Number of tracks: 10
Official DR value: DR13

Samplerate: 192000 Hz
Channels: 2
Bits per sample: 24
Bitrate: 5133 kbps
Codec: FLAC
================================================================================



Emmylou Harris - The 70s Studio Album Collection (2014) [Official Digital Download 24bit/192kHz] RE-UP

Emmylou Harris - Blue Kentucky Girl (1979/2014)
FLAC (tracks) 24 bit/192 kHz | Time - 34:45 minutes | 1,31 GB
Studio Master, Official Digital Download | Artwork: Front cover

In response to criticism that her records weren't "country" enough, Harris recorded Blue Kentucky Girl, one of her most traditional outings. Relying on a more acoustic sound, the album largely forsakes contemporary pop songs in favor of standard country fare, including the Louvin Brothers' "Everytime You Leave" and Leon Payne's "They'll Never Take His Love from Me." The cover of Dallas Frazier's "Beneath Still Waters" earned Harris her fourth number one single.

Tracklist:

01 - Sisters Coming Home (with Tanya Tucker)
02 - Beneath Still Waters
03 - Rough And Rocky
04 - Hickory Wind
05 - Save The Last Dance For Me
06 - Sorrow In The Wind (with Sharon & Cheryl White)
07 - They'll Never Take His Love From Me
08 - Everytime You Leave (with Don Everly)
09 - Blue Kentucky Girl
10 - Even Cowgirls Get The Blues (with Dolly Parton & Linda Ronstadt)

Analyzed: Emmylou Harris / Blue Kentucky Girl (The 70's Studio Album Collection)
––––––––––––––––––––––––––––––––––––––––

DR Peak RMS Duration Track
––––––––––––––––––––––––––––––––––––––––
DR14 -0.10 dB -16.17 dB 2:55 01-Sisters Coming Home (with Tanya Tucker)
DR12 -0.29 dB -16.01 dB 3:44 02-Beneath Still Waters
DR13 -0.10 dB -16.71 dB 3:53 03-Rough And Rocky
DR14 -2.55 dB -21.10 dB 4:03 04-Hickory Wind
DR13 -0.44 dB -16.68 dB 3:42 05-Save The Last Dance For Me
DR12 -3.63 dB -19.15 dB 3:32 06-Sorrow In The Wind (with Sharon & Cheryl White)
DR13 -0.49 dB -16.95 dB 2:38 07-They'll Never Take His Love From Me
DR12 -0.10 dB -15.19 dB 3:02 08-Everytime You Leave (with Don Everly)
DR12 -1.28 dB -15.88 dB 3:20 09-Blue Kentucky Girl
DR15 -0.10 dB -17.47 dB 3:56 10-Even Cowgirls Get The Blues (with Dolly Parton & Linda Ronstadt)
––––––––––––––––––––––––––––––––––––––––

Number of tracks: 10
Official DR value: DR13

Samplerate: 192000 Hz
Channels: 2
Bits per sample: 24
Bitrate: 5071 kbps
Codec: FLAC
================================================================================



Emmylou Harris - The 70s Studio Album Collection (2014) [Official Digital Download 24bit/192kHz] RE-UP

Emmylou Harris - Light Of The Stable: The Christmas Album (1979/2014)
FLAC (tracks) 24 bit/192 kHz | Time - 30:47 minutes | 1,07 GB
Studio Master, Official Digital Download | Artwork: Front cover

Emmylou Harris is an artist with the rare sort of voice that communicates an honest and firmly grounded humanity while possessing a crystalline purity that verges on the angelic. In short, she was a singer born to make a great Christmas album, and in 1979 she did just that with Light of the Stable, in which she fused the high-lonesome traditional sound she'd been exploring on Roses in the Snow and Blue Kentucky Girl with songs that honored the spiritual and emotional roots of the holiday season. The album's gestation began with a 1975 single of "Light of the Stable," with most of the material recorded years later, but Harris and producer Brian Ahern gave the project an admirably unified sound, which speaks of Christmas with a quiet dignity that's celebratory but reverent – this is one of the few Christmas albums from a secular artist that scarcely mentions Santa Claus while focusing clearly on the birth of Christ. Harris and Ahern assembled a stellar cast for these sessions – the pickers include Ricky Skaggs, James Burton, and Rodney Crowell, while Willie Nelson, Linda Ronstadt, Dolly Parton, and Neil Young pitch in backing vocals – but the results are a marvel of restraint, with precious little showboating and a handful of performances that rank with the performers' best work. If you're looking for a disc that will kick up your Christmas party a few notches, Light of the Stable isn't it, but if you want to hear music of quiet but compelling beauty which warmly resonates with the true meaning of the holidays, then you'll find this album is an experience to treasure.

Tracklist:

01 - Christmas Times A Comin'
02 - O Little Town Of Bethlehem
03 - Away In A Manger
04 - Angel Eyes
05 - The First Noel
06 - Star Of Bethlehem (with Neil Young)
07 - Little Drummer Boy
08 - Golden Cradle
09 - Silent Night
10 - Light Of The Stable

Analyzed: Emmylou Harris / Light of the Stable (The 70's Studio Album Collection)
––––––––––––––––––––––––––––––––––––––––

DR Peak RMS Duration Track
––––––––––––––––––––––––––––––––––––––––
DR11 -2.23 dB -16.98 dB 2:54 01-Christmas Times A Comin'
DR13 -1.00 dB -16.60 dB 3:44 02-O Little Town Of Bethlehem
DR14 -1.93 dB -19.49 dB 2:41 03-Away In A Manger
DR13 -1.97 dB -17.45 dB 3:21 04-Angel Eyes
DR12 -4.14 dB -20.18 dB 2:41 05-The First Noel
DR12 -1.00 dB -16.50 dB 3:08 06-Star Of Bethlehem (with Neil Young)
DR13 -1.84 dB -18.66 dB 4:05 07-Little Drummer Boy
DR11 -6.56 dB -22.22 dB 2:08 08-Golden Cradle
DR13 -2.41 dB -18.20 dB 3:36 09-Silent Night
DR12 -1.10 dB -17.32 dB 2:28 10-Light Of The Stable
––––––––––––––––––––––––––––––––––––––––

Number of tracks: 10
Official DR value: DR12

Samplerate: 192000 Hz
Channels: 2
Bits per sample: 24
Bitrate: 4750 kbps
Codec: FLAC
================================================================================


Thanks to the Original customer!