Tags
Language
Tags

Emmylou Harris - The 80s Studio Album Collection (2014) [Official Digital Download 24bit/192kHz] RE-UP

Posted By:
Emmylou Harris - The 80s Studio Album Collection (2014) [Official Digital Download 24bit/192kHz] RE-UP

Emmylou Harris - The 80s Studio Album Collection (2014)
FLAC (tracks) 24 bit/192(44) kHz | Time - 285:59 minutes | 7,43 GB
Studio Master, Official Digital Download | Artwork: Front cover(s)

Eight of thirteen time Grammy Award winner Emmylou Harris' best albums from the '80s, featuring: Roses in the Snow, Evangeline, Cimarron, White Shoes, The Ballad of Sally Rose, Thirteen, Angel Band and Bluebird. All of these spectacular 1980's albums made it to onto the U.S. albums chart, ranging from the number 2 spot to number 23.

Already celebrated as a discoverer and interpreter of other artists’ songs, 12-time Grammy Award winner Emmylou Harris has, in the last decade, gained admiration as much for her eloquently straightforward songwriting as for her incomparably expressive singing. As well as leading a successful solo career, Harris has worked with a wide spectrum of musical luminaries, including Gram Parsons, Linda Ronstadt, Dolly Parton, Mark Knopfler, Willie Nelson, Bob Dylan, and Neil Young. A 12-time Grammy winner, she was also a Billboard's Century Award recipient in 1999 and has been inducted into both The Country Music Hall of Fame and The Academy of Arts and Sciences. She was also named one of VH1's "100 Most Influential Women in Rock and Roll."


Emmylou Harris - The 80s Studio Album Collection (2014) [Official Digital Download 24bit/192kHz] RE-UP

Emmylou Harris - Roses In The Snow (1980/2014)
FLAC (tracks) 24 bit/192(44) kHz | Time - 30:39 minutes | 600 MB
Studio Master, Official Digital Download | Artwork: Front cover

Combining acoustic bluegrass with traditional Appalachian melodies (and tossing one contemporary tune, Paul Simon's "The Boxer," into the mix), Roses in the Snow ranks among Emmylou Harris' riskiest – and most satisfying – gambits.

Tracklist:

01 - Roses In The Snow
02 - Wayfaring Stranger
03 - Green Pastures
04 - The Boxer
05 - Darkest Hour Is Just Before The Dawn
06 - I'll Go Stepping Too
07 - You're Learning
08 - Jordan
09 - Miss The Mississippi And You
10 - Gold Watch and Chain

NOTE: Tracks "1-7" are 44khz/24bit encoded files.

Analyzed: Emmylou Harris / Roses In The Snow
––––––––––––––––––––––––––––––––––––––––

DR Peak RMS Duration Track
––––––––––––––––––––––––––––––––––––––––
DR11 -2.11 dB -15.52 dB 2:37 01-Roses In The Snow
DR13 -0.30 dB -15.82 dB 3:32 02-Wayfaring Stranger
DR12 -0.28 dB -15.52 dB 3:13 03-Green Pastures
DR11 -0.31 dB -14.34 dB 3:20 04-The Boxer
DR12 -0.35 dB -14.72 dB 3:25 05-Darkest Hour Is Just Before The Dawn
DR11 -1.71 dB -15.04 dB 2:20 06-I'll Go Stepping Too
DR12 -1.30 dB -15.25 dB 3:01 07-You're Learning
––––––––––––––––––––––––––––––––––––––––

Number of tracks: 7
Official DR value: DR12

Samplerate: 44100 Hz
Channels: 2
Bits per sample: 24
Bitrate: 1509 kbps
Codec: FLAC
================================================================================

––––––––––––––––––––––––––––––––––––––––
Analyzed: Emmylou Harris / Roses In The Snow
––––––––––––––––––––––––––––––––––––––––

DR Peak RMS Duration Track
––––––––––––––––––––––––––––––––––––––––
DR11 -1.10 dB -14.78 dB 2:10 08-Jordan
DR14 -0.10 dB -16.57 dB 3:47 09-Miss The Mississippi And You
DR12 -0.79 dB -15.51 dB 3:12 10-Gold Watch and Chain
––––––––––––––––––––––––––––––––––––––––

Number of tracks: 3
Official DR value: DR12

Samplerate: 192000 Hz
Channels: 2
Bits per sample: 24
Bitrate: 5271 kbps
Codec: FLAC
================================================================================



Emmylou Harris - The 80s Studio Album Collection (2014) [Official Digital Download 24bit/192kHz] RE-UP

Emmylou Harris - Evangeline (1981/2014)
FLAC (tracks) 24 bit/192 kHz | Time - 34:19 minutes | 1,22 GB
Studio Master, Official Digital Download | Artwork: Front cover

Long considered a substandard effort due to its oddly brief running time (it's just barely half an hour long) and scattershot feel (like its sister album, Cimarron, also released in 1981, it primarily consists of outtakes from earlier albums), Evangeline is not as bad as its detractors claim. It's true that the album has more than a couple of clunkers; the synthesizers and California rock guitars of Rodney Crowell's "I Don't Have to Crawl" and "Ashes By Now" do neither singer nor songs any favors, the version of John Fogerty's "Bad Moon Rising" adds nothing new to the song, and James Taylor's "Millworker" simply isn't very good. On the other hand, two recordings from the then-unreleased Trio sessions with Dolly Parton and Linda Ronstadt, a perky "Mr. Sandman" that was a minor pop hit and a reworking of Robbie Robertson's haunting "Evangeline" featuring some outstanding harmonies from Parton, are outstanding, as are "Spanish Johnny," a Springsteen-ish ballad sung with Waylon Jennings, and a dazzling version of the standard "How High the Moon" that uses the same pre-rock arrangement style as "Mr. Sandman." So, Evangeline is certainly uneven, but it's not at all worthless.

Tracklist:

01 - I Don't Have To Crawl
02 - How High The Moon
03 - Spanish Johnny
04 - Bad Moon Rising
05 - Evangeline
06 - Hot Burrito #2
07 - Millworker
08 - Oh Atlanta
09 - Mister Sandman
10 - Ashes By Now

Analyzed: Emmylou Harris / Evangeline
––––––––––––––––––––––––––––––––––––––––

DR Peak RMS Duration Track
––––––––––––––––––––––––––––––––––––––––
DR13 -0.10 dB -14.79 dB 3:49 01-I Don't Have To Crawl
DR10 -0.10 dB -11.81 dB 3:25 02-How High The Moon
DR13 -0.10 dB -15.38 dB 3:54 03-Spanish Johnny
DR12 -0.10 dB -13.08 dB 2:44 04-Bad Moon Rising
DR12 -0.10 dB -14.34 dB 3:11 05-Evangeline
DR12 -0.10 dB -14.10 dB 3:08 06-Hot Burrito #2
DR12 -0.10 dB -15.08 dB 4:06 07-Millworker
DR12 -0.10 dB -12.99 dB 3:04 08-Oh Atlanta
DR12 -0.10 dB -14.45 dB 2:25 09-Mister Sandman
DR12 -0.10 dB -14.74 dB 4:31 10-Ashes By Now
––––––––––––––––––––––––––––––––––––––––

Number of tracks: 10
Official DR value: DR12

Samplerate: 192000 Hz
Channels: 2
Bits per sample: 24
Bitrate: 4797 kbps
Codec: FLAC
================================================================================



Emmylou Harris - The 80s Studio Album Collection (2014) [Official Digital Download 24bit/192kHz] RE-UP

Emmylou Harris - Cimarron (1981/2014)
FLAC (tracks) 24 bit/192 kHz | Time - 40:16 minutes | 1,57 GB
Studio Master, Official Digital Download | Artwork: Front cover

That Cimarron, Emmylou Harris' ninth regular album, was assembled largely from recording sessions held for her previous couple of records is no necessary reflection on its quality. In fact, Cimarron was a typical effort for Harris, presenting her usual mix of country favorites, songs borrowed from the pop/rock arena, and singer/songwriter discoveries. Most prominent among the last category was Townes Van Zandt's "If I Needed You," released as a single three months ahead of the LP. From the pop mainstream, Harris borrowed Poco's "Rose of Cimarron" and Bruce Springsteen's "The Price You Pay." The recent T.G. Sheppard country number one hit "The Last Cheater's Waltz" and "Tennessee Waltz," best remembered for Patti Page's pop hit, were given respectful readings. And there was a lovely arrangement of the traditional ballad "Spanish Is a Loving Tongue." But the most memorable songs on the album were its two other country Top Tens, Karen Brooks and Hank DeVito's "Tennessee Rose" and Paul Kennerley's "Born to Run." On the whole, the album maintained the high standard Harris had set with her previous releases, and it deserved its 1982 Grammy nomination for Best Country Vocal Performance, Female. Though it matched the success of recent Harris LPs on the country charts, hitting the Top Ten and remaining listed for more than nine months, it did not enjoy as great a pop crossover sale and became Harris' first regular album since her 1975 breakthrough not to go gold. This was more indicative of the overall decline in country's crossover success than of any deficiency of the album itself; nevertheless, Harris' commercial success had crested.

Tracklist:

01 - Rose Of Cimarron
02 - Spanish Is A Loving Tongue
03 - If I Needed You
04 - Another Lonesome Morning
05 - The Last Cheater's Waltz
06 - Born To Run
07 - The Price You Pay
08 - Son Of A Rotten Gambler
09 - Tennessee Waltz
10 - Tennessee Rose

Analyzed: Emmylou Harris / Cimarron
––––––––––––––––––––––––––––––––––––––––

DR Peak RMS Duration Track
––––––––––––––––––––––––––––––––––––––––
DR12 -0.77 dB -15.35 dB 4:21 01-Rose Of Cimarron
DR14 -0.10 dB -16.05 dB 3:21 02-Spanish Is A Loving Tongue
DR14 -0.74 dB -16.92 dB 3:36 03-If I Needed You
DR13 -2.40 dB -18.08 dB 3:06 04-Another Lonesome Morning
DR12 -0.80 dB -15.37 dB 5:37 05-The Last Cheater's Waltz
DR13 -0.40 dB -15.95 dB 3:47 06-Born To Run
DR14 -0.10 dB -17.75 dB 4:39 07-The Price You Pay
DR14 -0.10 dB -16.44 dB 4:16 08-Son Of A Rotten Gambler
DR11 -3.10 dB -18.33 dB 2:31 09-Tennessee Waltz
DR11 -1.98 dB -15.70 dB 5:02 10-Tennessee Rose
––––––––––––––––––––––––––––––––––––––––

Number of tracks: 10
Official DR value: DR13

Samplerate: 192000 Hz
Channels: 2
Bits per sample: 24
Bitrate: 5338 kbps
Codec: FLAC
================================================================================



Emmylou Harris - The 80s Studio Album Collection (2014) [Official Digital Download 24bit/192kHz] RE-UP

Emmylou Harris - White Shoes (1983/2014)
FLAC (tracks) 24 bit/192 kHz | Time - 34:53 minutes | 1,22 GB
Studio Master, Official Digital Download | Artwork: Front cover

Harris' final album with longtime producer (and husband) Brian Ahern is among her most surprising and diverse, perhaps the closest she's ever come to a straightahead rock LP. Among the unusual cover choices: Johnny Ace's "Pledging My Love" and Donna Summer's "On the Radio".

Tracklist:

01 - Drivin' Wheel
02 - Pledging My Love
03 - In My Dreams
04 - White Shoes
05 - On The Radio
06 - It's Only Rock And Roll
07 - Diamonds Are A Girl's Best Friend
08 - Good News
09 - Baby, Better Start Turnin' Em Down
10 - Like An Old Fashioned Waltz

Analyzed: Emmylou Harris / White Shoes
––––––––––––––––––––––––––––––––––––––––

DR Peak RMS Duration Track
––––––––––––––––––––––––––––––––––––––––
DR14 -0.11 dB -16.35 dB 3:10 01-Drivin' Wheel
DR13 -2.08 dB -17.69 dB 3:00 02-Pledging My Love
DR13 -0.10 dB -15.46 dB 3:17 03-In My Dreams
DR13 -0.10 dB -14.75 dB 3:30 04-White Shoes
DR15 -0.61 dB -18.48 dB 5:12 05-On The Radio
DR13 -2.15 dB -16.90 dB 2:56 06-It's Only Rock And Roll
DR13 -0.10 dB -15.45 dB 3:40 07-Diamonds Are A Girl's Best Friend
DR15 -1.59 dB -21.09 dB 3:53 08-Good News
DR13 -1.73 dB -16.45 dB 3:04 09-Baby, Better Start Turnin' Em Down
DR12 -6.83 dB -23.98 dB 3:14 10-Like An Old Fashioned Waltz
––––––––––––––––––––––––––––––––––––––––

Number of tracks: 10
Official DR value: DR13

Samplerate: 192000 Hz
Channels: 2
Bits per sample: 24
Bitrate: 4392 kbps
Codec: FLAC
================================================================================



Emmylou Harris - The 80s Studio Album Collection (2014) [Official Digital Download 24bit/192kHz] RE-UP

Emmylou Harris - The Ballad Of Sally Rose (1985/2014)
FLAC (tracks) 24 bit/192 kHz | Time - 36:43 minutes | 1,23 GB
Studio Master, Official Digital Download | Artwork: Front cover

This is one of the most intriguing albums of Emmylou Harris' career, and that is saying a lot. It marked the first album where she wrote or co-wrote all the songs, and the strength of the songwriting makes one wonder why she had never attempted it before. One can tell that this album is truly a labor of love, as it is a semi-autobiographical concept album that she also co-produced. It tells the story of a girl from a small town who gets taken under the wing of singer that takes her (and her angelic voice) out on the road. (The story mirrors her relationship with Gram Parsons, although it is a fictional account of the life of another woman.) As a concept album, it only partly holds together; one must read the liner notes to get a true feeling for the story. However, Emmylou Harris sounds particularly inspired, and the songs themselves are strong both musically and lyrically. As expected, she truly shines on the slower ballads such as "Diamond in My Crown" and the closer "Sweet Chariot." While not essential for casual fans, it is an interesting album worth tracking down for Emmylou Harris fans.

Tracklist:

01 - The Ballad Of Sally Rose
02 - Rhythm Guitar
03 - I Think I Love Him/You Are My Flower
04 - Heart To Heart
05 - Woman Walk The Line
06 - Bad News
07 - Timberline
08 - Long Tall Sally Rose
09 - White Line
10 - Diamond In My Crown
11 - The Sweetheart Of The Rodeo (with Dolly Parton, Linda Ronstadt, Vince Gill & Gail Davies)
12 - K-S-O-S
13 - Sweet Chariot

NOTE: Tracks on this album are sourced from 3M DAT 50khz/16bit captured analog at 192khz/24bit.

Analyzed: Emmylou Harris / The Ballad of Sally Rose
––––––––––––––––––––––––––––––––––––––––

DR Peak RMS Duration Track
––––––––––––––––––––––––––––––––––––––––
DR14 -0.26 dB -17.86 dB 2:48 01-The Ballad Of Sally Rose
DR14 0.00 dB -16.58 dB 3:19 02-Rhythm Guitar
DR12 -3.75 dB -20.52 dB 1:15 03-I Think I Love Him/You Are My Flower
DR15 0.00 dB -19.25 dB 2:32 04-Heart To Heart
DR14 -0.26 dB -17.81 dB 4:09 05-Woman Walk The Line
DR13 -1.68 dB -16.86 dB 1:49 06-Bad News
DR13 0.00 dB -16.08 dB 3:08 07-Timberline
DR13 0.00 dB -15.95 dB 1:33 08-Long Tall Sally Rose
DR12 0.00 dB -14.34 dB 3:46 09-White Line
DR12 -0.65 dB -17.59 dB 2:56 10-Diamond In My Crown
DR14 -1.13 dB -18.33 dB 3:41 11-The Sweetheart Of The Rodeo (with Dolly Parton, Linda Ronstadt, Vince Gill & Gail Davies)
DR14 -0.82 dB -17.95 dB 2:51 12-K-S-O-S
DR15 0.00 dB -19.19 dB 3:00 13-Sweet Chariot
––––––––––––––––––––––––––––––––––––––––

Number of tracks: 13
Official DR value: DR13

Samplerate: 192000 Hz
Channels: 2
Bits per sample: 24
Bitrate: 4424 kbps
Codec: FLAC
================================================================================



Emmylou Harris - The 80s Studio Album Collection (2014) [Official Digital Download 24bit/192kHz] RE-UP

Emmylou Harris - Thirteen (1986/2014)
FLAC (tracks) 24 bit/192 kHz | Time - 32:39 minutes | 1,16 GB
Studio Master, Official Digital Download | Artwork: Front cover

Thirteen takes its title from the number of solo efforts Harris had recorded to date; her numbering didn't take into account hits collections or her true debut, Gliding Bird, an album she later disowned. For that matter, Thirteen is no great shakes either – with the exception of a lovely cover of Bruce Springsteen's "My Father's House," both the material and the performances are lackluster.

Tracklist:

01 - Mystery Train
02 - You're Free To Go
03 - Sweetheart Of The Pines
04 - Just Someone I Used To Know
05 - My Father's House
06 - Lacassine Special
07 - Today I Started Loving You Again
08 - When I Was Yours
09 - I Had My Heart Set On You
10 - Your Long Journey

Tracks on this album are 44khz/16bit mixes, captured to 192khz/24bit.

Analyzed: Emmylou Harris / Thirteen
––––––––––––––––––––––––––––––––––––––––

DR Peak RMS Duration Track
––––––––––––––––––––––––––––––––––––––––
DR12 -0.10 dB -13.86 dB 2:34 01-Mystery Train
DR12 -0.10 dB -15.41 dB 2:50 02-You're Free To Go
DR12 -0.10 dB -14.05 dB 3:23 03-Sweetheart Of The Pines
DR13 -0.10 dB -15.32 dB 3:00 04-Just Someone I Used To Know
DR15 -1.94 dB -20.91 dB 4:50 05-My Father's House
DR13 -1.71 dB -16.60 dB 2:54 06-Lacassine Special
DR13 -2.23 dB -18.58 dB 3:23 07-Today I Started Loving You Again
DR14 -0.10 dB -16.83 dB 2:48 08-When I Was Yours
DR12 -0.10 dB -14.58 dB 3:10 09-I Had My Heart Set On You
DR11 -0.10 dB -13.06 dB 3:46 10-Your Long Journey
––––––––––––––––––––––––––––––––––––––––

Number of tracks: 10
Official DR value: DR13

Samplerate: 192000 Hz
Channels: 2
Bits per sample: 24
Bitrate: 4822 kbps
Codec: FLAC
================================================================================



Emmylou Harris - The 80s Studio Album Collection (2014) [Official Digital Download 24bit/192kHz] RE-UP

Emmylou Harris - Angel Band (1987/2014)
FLAC (tracks) 16 bit/44,1 kHz | Time - 37:10 minutes | 193 MB
Studio Master, Official Digital Download | Artwork: Front cover

Angel Band is yet another fascinating left turn, an acoustic record comprised of country-gospel songs like "We Shall Rise", "If I Be Lifted Up" and "Someday My Ship Will Sail", performed with great subtlety and nuance.

Tracklist:

01 - Where Could I Go But To The Lord
02 - Angel Band
03 - If I Be Lifted Up
04 - Precious Memories
05 - Bright Morning Stars
06 - When He Calls
07 - We Shall Rise
08 - Drifting Too Far
09 - Who Will Sing For Me
10 - Someday My Ship Will Sail
11 - The Other Side Of Life
12 - When They Ring Those Golden Bells

Analyzed: Emmylou Harris / Angel Band
––––––––––––––––––––––––––––––––––––––––

DR Peak RMS Duration Track
––––––––––––––––––––––––––––––––––––––––
DR13 -2.60 dB -19.12 dB 3:34 01-Where Could I Go But To The Lord
DR12 0.00 dB -15.99 dB 3:03 02-Angel Band
DR14 -3.04 dB -21.62 dB 2:47 03-If I Be Lifted Up
DR13 -3.53 dB -20.87 dB 4:32 04-Precious Memories
DR13 -6.73 dB -24.02 dB 2:37 05-Bright Morning Stars
DR12 -4.11 dB -20.58 dB 2:44 06-When He Calls
DR13 -1.81 dB -18.28 dB 2:14 07-We Shall Rise
DR14 -4.36 dB -23.55 dB 4:49 08-Drifting Too Far
DR11 -6.17 dB -21.51 dB 2:34 09-Who Will Sing For Me
DR12 -4.58 dB -20.62 dB 2:28 10-Someday My Ship Will Sail
DR15 -3.09 dB -21.50 dB 2:36 11-The Other Side Of Life
DR12 -4.60 dB -20.85 dB 3:12 12-When They Ring Those Golden Bells
––––––––––––––––––––––––––––––––––––––––

Number of tracks: 12
Official DR value: DR13

Samplerate: 44100 Hz
Channels: 2
Bits per sample: 16
Bitrate: 720 kbps
Codec: FLAC
================================================================================



Emmylou Harris - The 80s Studio Album Collection (2014) [Official Digital Download 24bit/192kHz] RE-UP

Emmylou Harris - Blue Bird (1989/2014)
FLAC (tracks) 16 bit/44,1 kHz | Time - 39:16 minutes | 225 MB
Studio Master, Official Digital Download | Artwork: Front cover

Like most of Emmylou Harris' albums, Bluebird is an expertly performed album, featuring some truly startling and affecting tour de forces. The material features a handful of truly great songs, like John Hiatt's "Icy Blue Heart" and her original "A River for Him".

Tracklist:

01 - Heaven Only Knows
02 - You've Been On My Mind
03 - Icy Blue Heart
04 - Love Is
05 - No Regrets
06 - Lonely Street
07 - Heartbreak Hill
08 - I Still Miss Someone
09 - A River For Him
10 - If You Were A Bluebird

Analyzed: Emmylou Harris / Blue Bird
––––––––––––––––––––––––––––––––––––––––

DR Peak RMS Duration Track
––––––––––––––––––––––––––––––––––––––––
DR16 -0.61 dB -18.95 dB 3:36 01-Heaven Only Knows
DR14 -3.52 dB -20.62 dB 2:54 02-You've Been On My Mind
DR13 -3.03 dB -20.77 dB 4:08 03-Icy Blue Heart
DR13 -2.83 dB -19.07 dB 3:54 04-Love Is
DR12 -1.54 dB -16.64 dB 5:39 05-No Regrets
DR11 -3.50 dB -18.81 dB 3:14 06-Lonely Street
DR13 -1.16 dB -17.00 dB 3:12 07-Heartbreak Hill
DR13 -1.60 dB -17.75 dB 2:54 08-I Still Miss Someone
DR13 -2.79 dB -19.72 dB 5:07 09-A River For Him
DR14 -3.43 dB -21.58 dB 4:38 10-If You Were A Bluebird
––––––––––––––––––––––––––––––––––––––––

Number of tracks: 10
Official DR value: DR13

Samplerate: 44100 Hz
Channels: 2
Bits per sample: 16
Bitrate: 758 kbps
Codec: FLAC
================================================================================


Thanks to the Original customer!