Ensemble La Rota - Adiu, adiu dous dame (2020) [Official Digital Download 24/96]

Posted By: El Misha
Ensemble La Rota - Adiu, adiu dous dame (2020) [Official Digital Download 24/96]

Ensemble La Rota - Adiu, adiu dous dame (2020)
FLAC (tracks) 24-bit/96 kHz | Time - 56:22 | 572 MB
Studio Master, Official Digital Download | Artwork: Front cover+digital booklet

"Adiu, adiu dous dame" avec l'ensemble La Rota fait revivre des chants du XIV siècle italien.



Tracklist:

01. Vergine donzella imperadrice (Lauda)
02. Come in sul fonte (Madrigal)
03. Orsu, gentili spirti
04. Saltarello
05. I' vivo amando sempre (Ballata)
06. Isabella (Istanpitta)
07. I' vo' bene (Ballata)
08. Trotto
09. Or piangiamo (Lauda)
10. Che pena è questa al cor (Ballata) [Arr. for Voice & Chamber Ensemble]
11. Che pena questa (Instrumental)
12. Allegro canto (Lauda) - Saltarello del grande San Domenico
13. Faccia chi de' (Caccia-Madrigal)
14. Adiu, adiu dous dame (Virelai) [Arr. for Voice & Chamber Ensemble]

foobar2000 1.4 / Dynamic Range Meter 1.1.1
log date: 2020-12-02 07:13:14

––––––––––––––––––––––––––––––––––––––––
Analyzed: Ensemble La Rota / Adiu, adiu dous dame
––––––––––––––––––––––––––––––––––––––––

DR Peak RMS Duration Track
––––––––––––––––––––––––––––––––––––––––
DR15 -2.71 dB -22.38 dB 5:01 01-: Vergine donzella imperadrice
DR11 -7.82 dB -22.81 dB 4:36 02-Firenze: Come in sul fonte
DR13 -5.26 dB -22.94 dB 5:50 03-Landini: Or su, gentili spirti
DR13 -5.01 dB -20.62 dB 5:19 04-: Saltarello
DR12 -2.51 dB -21.14 dB 3:22 05-Firenze: I' vivo amando sempre
DR12 -4.74 dB -21.89 dB 7:17 06-: Isabella
DR12 -5.44 dB -21.94 dB 2:31 07-Firenze: I' vo' bene
DR12 -6.02 dB -20.24 dB 1:27 08-: Trotto
DR15 -4.29 dB -24.85 dB 5:47 09-: Or piangiamo
DR13 -3.73 dB -21.04 dB 3:44 10-Landini: Che pena è questa al cor (Arr. for Voice & Chamber Ensemble)
DR11 -7.68 dB -23.97 dB 2:16 11-: Che pena questa
DR15 -0.31 dB -21.10 dB 4:07 12-Miller: Allegro canto - Saltarello del grande San Domenico
DR12 -6.60 dB -21.48 dB 2:49 13-Firenze: Faccia chi de'
DR12 -3.50 dB -22.97 dB 2:24 14-Landini: Adiu, adiu dous dame (Arr. for Voice & Chamber Ensemble)
––––––––––––––––––––––––––––––––––––––––

Number of tracks: 14
Official DR value: DR13

Samplerate: 48000 Hz
Channels: 2
Bits per sample: 24
Bitrate: 1430 kbps
Codec: FLAC
================================================================================



Thanks to the Original customer!