Ensemble Antiphona & Rolandas Muleika - Montigny: Grands Motets (2021) [Official Digital Download 24/88]

Posted By: delpotro
Ensemble Antiphona & Rolandas Muleika - Montigny: Grands Motets (2021) [Official Digital Download 24/88]

Ensemble Antiphona & Rolandas Muleika - Montigny: Grands Motets (2021)
FLAC (tracks) 24-bit/88,2 kHz | Front Cover & Digital Booklet | Time - 54:51 minutes | 1,01 GB
Classical, Vocal | Label: Paraty, Official Digital Download

This Valette is one of the most stupendous geniuses we have and his music is stupendous too. This is how the famed Sebastian de Brossard introduces his contemporary composer Joseph Valette de Montigny. Though acknowledged for its qualities, Montigny’s music has very rarely been played. Nor has it ever been recorded. Simply on account of its rarity and the absence of scores, it has remained unpublished. Thanks to this CD on which two great motets are performed, Antiphona Ensemble and its director Rolandas Muleïka are filling a vacuum. These motets are two outstanding pieces in Joseph de Montigny’s catalogue. Musicologist Benoît Michel, who died at a very young age, was the main instigator of this felicitous rediscovery: he would undoubtedly have felt enthusiastic about the release of this CD. This presentation draws to a large extent upon his work.

Tracklist:
1. Pierre Perny, Rolandas Muleika & Ensemble Antiphona – Motet "Surge propera": Symphonie, récit de taille et chœur "Surge propera Sion filia" (05:57)
2. Timothé Bougon, Rolandas Muleika, David Tricou & Ensemble Antiphona – Motet "Surge propera": Duo de haute-contre et basse-taille "Quanto factus humilior" (03:00)
3. Rolandas Muleika, Coline Bouton, Ensemble Antiphona & Eva Tamisier – Motet "Surge propera": Duo de dessus et chœur "Tubæ sonitu" (03:24)
4. Rolandas Muleika, David Tricou & Ensemble Antiphona – Motet "Surge propera": Récit de haute-contre "Christo vero soli" (04:24)
5. Timothé Bougon, Rolandas Muleika & Ensemble Antiphona – Motet "Surge propera": Récit de basse-taille "Audiat homo et intelligat" (01:53)
6. Rolandas Muleika & Ensemble Antiphona – Motet "Surge propera": Petit chœur "Quid homo ? Ô Deus !" (01:35)
7. Rolandas Muleika & Ensemble Antiphona – Motet "Surge propera": Récit de taille et trio haute-contre, taille et basse "O tui nimis prodiga Deitas !" (03:08)
8. Pierre Perny, Rolandas Muleika & Ensemble Antiphona – Motet "Surge propera": Récit de taille "Qui sitit qui esurit" (03:14)
9. Rolandas Muleika, Coline Bouton & Ensemble Antiphona – Motet "Surge propera": Récit de dessus et chœur "Deo serviant omnia" (04:01)
10. Pierre Perny, Rolandas Muleika & Ensemble Antiphona – Motet "Salvum me fac Deus": Prélude et récit de taille "Salvum me fac Deus" (03:53)
11. Rolandas Muleika & Ensemble Antiphona – Motet "Salvum me fac Deus": Chœur "Veni in altitudinem maris" (02:55)
12. Raphaël Marbaud, Rolandas Muleika & Ensemble Antiphona – Motet "Salvum me fac Deus": Récit de basse "Multiplicati sunt super capillos" (01:45)
13. Rolandas Muleika & Ensemble Antiphona – Motet "Salvum me fac Deus": Chœur "Effunde super eos" (02:17)
14. Timothé Bougon, Raphaël Marbaud, Rolandas Muleika & Ensemble Antiphona – Motet "Salvum me fac Deus": Duo de basse-taille et basse "Videant pauperes et lætentur" (02:32)
15. Rolandas Muleika & Ensemble Antiphona – Motet "Salvum me fac Deus": Chœur "Laudent illum cæli" (02:52)
16. Rolandas Muleika, Ensemble Antiphona & Eva Tamisier – Motet "Salvum me fac Deus": Récit de dessus "Ego sum pauper" (03:22)
17. Timothé Bougon, Rolandas Muleika, David Tricou & Ensemble Antiphona – Motet "Salvum me fac Deus": Duo de haute-contre et basse-taille et chœur "Laudabo nomen Dei" (04:32)

foobar2000 1.4.1 / Dynamic Range Meter 1.1.1
log date: 2021-06-23 18:11:41

––––––––––––––––––––––––––––––––––––––––
Analyzed: Ensemble Antiphona & Rolandas Muleika / Montigny: Grands Motets
––––––––––––––––––––––––––––––––––––––––

DR Peak RMS Duration Track
––––––––––––––––––––––––––––––––––––––––
DR10 -0.10 dB -14.02 dB 5:57 01-Montigny: Motet Surge propera: Symphonie, récit de taille et chœur "Surge propera Sion filia"
DR13 -0.10 dB -15.92 dB 3:01 02-Montigny: Motet Surge propera: Duo de haute-contre et basse-taille "Quanto factus humilior"
DR9 -0.10 dB -11.92 dB 3:25 03-Montigny: Motet Surge propera: Duo de dessus et chœur "Tubæ sonitu"
DR13 -0.72 dB -17.53 dB 4:24 04-Montigny: Motet Surge propera: Récit de haute-contre "Christo vero soli"
DR12 -0.22 dB -16.77 dB 1:53 05-Montigny: Motet Surge propera: Récit de basse-taille "Audiat homo et intelligat"
DR12 -0.70 dB -18.53 dB 1:36 06-Montigny: Motet Surge propera: Petit chœur "Quid homo ? Ô Deus !"
DR12 -0.10 dB -16.38 dB 3:08 07-Montigny: Motet Surge propera: Récit de taille et trio haute-contre, taille et basse "O tui nimis prodiga Deitas !"
DR13 -1.82 dB -18.77 dB 3:15 08-Montigny: Motet Surge propera: Récit de taille "Qui sitit qui esurit"
DR10 -0.10 dB -12.89 dB 4:01 09-Montigny: Motet Surge propera: Récit de dessus et chœur "Deo serviant omnia"
DR11 -0.43 dB -15.53 dB 3:54 10-Montigny: Motet Salvum me fac Deus: Prélude et récit de taille "Salvum me fac Deus"
DR10 -0.10 dB -13.87 dB 2:55 11-Montigny: Motet Salvum me fac Deus: Chœur "Veni in altitudinem maris"
DR12 -1.61 dB -17.23 dB 1:45 12-Montigny: Motet Salvum me fac Deus: Récit de basse "Multiplicati sunt super capillos"
DR9 -0.10 dB -11.16 dB 2:18 13-Montigny: Motet Salvum me fac Deus: Chœur "Effunde super eos"
DR11 -0.19 dB -14.89 dB 2:32 14-Montigny: Motet Salvum me fac Deus: Duo de basse-taille et basse "Videant pauperes et lætentur"
DR9 -0.10 dB -12.83 dB 2:53 15-Montigny: Motet Salvum me fac Deus: Chœur "Laudent illum cæli"
DR11 -0.23 dB -16.53 dB 3:23 16-Montigny: Motet Salvum me fac Deus: Récit de dessus "Ego sum pauper"
DR8 -0.10 dB -11.91 dB 4:32 17-Montigny: Motet Salvum me fac Deus: Duo de haute-contre et basse-taille et chœur "Laudabo nomen Dei"
––––––––––––––––––––––––––––––––––––––––

Number of tracks: 17
Official DR value: DR11

Samplerate: 88200 Hz
Channels: 2
Bits per sample: 24
Bitrate: 2590 kbps
Codec: FLAC
================================================================================


Thanks to the Original customer!