Eric Bibb And Needed Time - Good Stuff (1997) [Reissue 2001] {2.0 & 5.0} PS3 ISO + Hi-Res FLAC

Posted By: HDAtall
Eric Bibb And Needed Time - Good Stuff (1997) [Reissue 2001] {2.0 & 5.0} PS3 ISO + Hi-Res FLAC

Eric Bibb & Needed Time - Good Stuff (1997) [Reissue 2001]
PS3 Rip | SACD ISO | DST64 2.0 & 5.0 > 1-bit/2.8224 MHz | 55:41 minutes | Scans included | 3,2 GB
or FLAC 2.0 Stereo (converted with foobar2000 to tracks) 24bit/88,2 kHz | Scans included | 1,29 GB

Eric Bibb's Good Stuff, is a clever fusion of contemporary folk and classic country-blues and classic gospel that emphasizes the guitarist's skill at fusing genres, as well as his flair for writing solid bluesy songs. Not all of the material really catches hold, but it all shows promise, and the very best moments on the record confirm that he's one of the more intriguing new bluesmen in the late '90s.

Tracklist:

01. Good Stuff
02. Sauser'N'Cup
03. Single By Shingle
04. Don't Ever Let Nobody Drag Your Spirit Down
05. Where The Green Grass Grows
06. Blacksmith Island
07. New World Comin Through
08. Too Much Whisky
09. Nothin' Like You Used To Do
10. All Of My Love
11. Simple Song
12. Happy Home Recipe
13. Done Laid Around
14. Rough Waters

foobar2000 1.3.2 / Dynamic Range Meter 1.1.1

––––––––––––––––––––––––––––––––––––––––
Analyzed: ? / ?
––––––––––––––––––––––––––––––––––––––––

DR Peak RMS Duration Track
––––––––––––––––––––––––––––––––––––––––
DR13 -6.21 dB -25.59 dB 3:22 01-Eric Bibb Good Stuff
DR16 -7.12 dB -31.65 dB 3:47 02-Eric Bibb Good Stuff
DR13 -6.78 dB -27.27 dB 3:32 03-Eric Bibb Good Stuff
DR14 -5.61 dB -25.99 dB 6:53 04-Eric Bibb Good Stuff
DR14 -5.52 dB -27.38 dB 4:32 05-Eric Bibb Good Stuff
DR13 -6.69 dB -26.15 dB 2:19 06-Eric Bibb Good Stuff
DR13 -6.55 dB -28.52 dB 3:27 07-Eric Bibb Good Stuff
DR14 -5.85 dB -29.48 dB 3:24 08-Eric Bibb Good Stuff
DR13 -4.27 dB -23.13 dB 4:33 09-Eric Bibb Good Stuff
DR13 -4.09 dB -22.95 dB 3:36 10-Eric Bibb Good Stuff
DR14 -7.23 dB -28.77 dB 3:49 11-Eric Bibb Good Stuff
DR12 -3.65 dB -24.02 dB 2:47 12-Eric Bibb Good Stuff
DR13 -6.50 dB -27.12 dB 5:01 13-Eric Bibb Good Stuff
DR13 -5.25 dB -27.05 dB 4:39 14-Eric Bibb Good Stuff
––––––––––––––––––––––––––––––––––––––––

Number of tracks: 14
Official DR value: DR13

Samplerate: 2822400 Hz / PCM Samplerate: 88200 Hz
Channels: 5
Bits per sample: 24
Bitrate: 14112 kbps
Codec: DST64
================================================================================

––––––––––––––––––––––––––––––––––––––––
Analyzed: ? / ?
––––––––––––––––––––––––––––––––––––––––

DR Peak RMS Duration Track
––––––––––––––––––––––––––––––––––––––––
DR13 -6.21 dB -21.85 dB 3:22 01-Eric Bibb Good Stuff
DR17 -7.12 dB -27.83 dB 3:47 02-Eric Bibb Good Stuff
DR13 -6.79 dB -23.44 dB 3:32 03-Eric Bibb Good Stuff
DR13 -5.61 dB -22.14 dB 6:53 04-Eric Bibb Good Stuff
DR14 -5.52 dB -23.56 dB 4:32 05-Eric Bibb Good Stuff
DR13 -6.70 dB -22.38 dB 2:19 06-Eric Bibb Good Stuff
DR13 -6.55 dB -24.76 dB 3:27 07-Eric Bibb Good Stuff
DR15 -5.85 dB -25.65 dB 3:24 08-Eric Bibb Good Stuff
DR12 -4.28 dB -19.26 dB 4:33 09-Eric Bibb Good Stuff
DR12 -4.10 dB -19.07 dB 3:36 10-Eric Bibb Good Stuff
DR14 -7.23 dB -24.93 dB 3:49 11-Eric Bibb Good Stuff
DR12 -3.67 dB -20.24 dB 2:47 12-Eric Bibb Good Stuff
DR13 -6.51 dB -23.34 dB 5:01 13-Eric Bibb Good Stuff
DR13 -5.24 dB -23.28 dB 4:39 14-Eric Bibb Good Stuff
––––––––––––––––––––––––––––––––––––––––

Number of tracks: 14
Official DR value: DR13

Samplerate: 2822400 Hz / PCM Samplerate: 88200 Hz
Channels: 2
Bits per sample: 24
Bitrate: 5645 kbps
Codec: DST64


Thanks to Alembic86!
Uncompressed SACD ISO size > 2,96 GB

>
SACD ISO 1
SACD ISO 2
SACD ISO 3
SACD ISO 4

FLAC 1 (Stereo)
FLAC 2 (Stereo)

>