Eric Clapton - 461 Ocean Boulevard (1974) [Japanese Limited SHM-SACD 2010] PS3 ISO + Hi-Res FLAC

Posted By: HDAtall
Eric Clapton - 461 Ocean Boulevard (1974) [Japanese Limited SHM-SACD 2010] PS3 ISO + Hi-Res FLAC

Eric Clapton - 461 Ocean Boulevard (1974) [Japanese Limited SHM-SACD 2010 # UIGY-9024]
PS3 Rip | SACD ISO | DSD64 2.0 > 1-bit/2.8224 MHz | 39:02 minutes | Scans included | 1,15 GB
or FLAC 2.0(converted with foobar2000 to tracks) 24bit/96 kHz | Full Scans included | 925 MB

461 Ocean Boulevard is the second solo studio album by Eric Clapton that marked his return to recording after recovering from a three-year addiction to heroin. The album topped various international charts and sold more than two million copies. The album title refers to the address on Ocean Boulevard in Golden Beach, Florida where Clapton lived while recording the album. The street address of the house was changed after the album's release due to fans flocking to the property. The house has long since been rebuilt and the street address restored.

461 Ocean Boulevard is Eric Clapton's second studio solo album, arriving after his side project of Derek and the Dominos and a long struggle with heroin addiction. Although there are some new reggae influences, the album doesn't sound all that different from the rock, pop, blues, country, and R&B amalgam of Eric Clapton. However, 461 Ocean Boulevard is a tighter, more focused outing that enables Clapton to stretch out instrumentally. Furthermore, the pop concessions on the album – the sleek production, the concise running times – don't detract from the rootsy origins of the material, whether it's Johnny Otis' "Willie and the Hand Jive," the traditional blues "Motherless Children," Bob Marley's "I Shot the Sheriff," or Clapton's emotional original "Let It Grow." With its relaxed, friendly atmosphere and strong bluesy roots, 461 Ocean Boulevard set the template for Clapton's '70s albums. Though he tried hard to make an album exactly like it, he never quite managed to replicate its charms.

Tracklist:

01 - Motherless Children
02 - Give Me Strength
03 - Willie And The Hand Jive
04 - Get Ready
05 - I Shot The Sheriff
06 - I Can't Hold Out
07 - Please Be With Me
08 - Let It Grow
09 - Steady Rollin' Man
10 - Mainline Florida

DSD Transferred from analogue master tapes by Hitoshi Takiguchi (Universal Studio Mastering).

foobar2000 1.4.3 / Dynamic Range Meter 1.1.1

––––––––––––––––––––––––––––––––––––––––
Analyzed: ERIC CLAPTON / 461 OCEAN BOULEVARD
––––––––––––––––––––––––––––––––––––––––

DR Peak RMS Duration Track
––––––––––––––––––––––––––––––––––––––––
DR12 -3.21 dB -16.54 dB 4:50 01-Motherless Children
DR13 -4.14 dB -19.63 dB 2:51 02-Give Me Strength
DR14 -3.79 dB -19.47 dB 3:29 03-Willie And The Hand Jive
DR14 -3.13 dB -20.16 dB 3:46 04-Get Ready
DR13 -3.39 dB -17.78 dB 4:22 05-I Shot The Sheriff
DR13 -4.67 dB -19.72 dB 4:10 06-I Can't Hold Out
DR11 -5.11 dB -19.75 dB 3:25 07-Please Be With Me
DR11 -4.56 dB -18.54 dB 4:56 08-Let It Grow
DR14 -3.52 dB -18.76 dB 3:11 09-Steady Rollin' Man
DR11 -3.52 dB -16.49 dB 4:04 10-Mainline Florida
––––––––––––––––––––––––––––––––––––––––

Number of tracks: 10
Official DR value: DR13

Samplerate: 2822400 Hz / PCM Samplerate: 176400 Hz
Channels: 2
Bits per sample: 1
Bitrate: 5645 kbps
Codec: DSD64


Thanks to PS³SACD!
Uncompressed SACD ISO size > 1,58 GB

ERIC CLAPTON on SACDs
>