Eric Clapton - August (1986/2012) [Official Digital Download]

Posted By: HDV
Eric Clapton - August (1986/2012) [Official Digital Download]

Eric Clapton - August (1986/2012)
FLAC (tracks) 24 bit/48 kHz | Time - 49:37 minutes | 620 MB
Studio Master, Official Digital Download | Artwork: Front cover

Eric Clapton’s 1986 classic "August" represents a pivotal outing by the legendary guitarist. The evocative album features his trademark sounds with glimpses of R&B influences. Joining Clapton are greats Phil Collins (producer/drummer), Greg Phillinganes (keyboardist), Nathan East (bassist) and guest vocalist Tina Turner. The album includes his iconic track “It’s In The Way That You Use It”, which peaked at #1 on the Mainstream Rock charts and is featured in the motion picture film, "The Color of Money". "August" is one of Clapton’s biggest-selling solo albums.

Eric Clapton adopted a new, tougher, hard R&B approach on August, employing a stripped-down band featuring keyboard player Greg Phillinganes, bassist Nathan East, and drummer/producer Phil Collins, plus, on several tracks, a horn section and, on a couple of tracks, backup vocals by Tina Turner, and performing songs written by old Motown hand Lamont Dozier, among others. The excellent, but incongruous, leadoff track, however, was "It's in the Way That You Use It," which Clapton and Robbie Robertson had written for Robertson's score to the film The Color of Money. Elsewhere, Clapton sang and played fiercely on songs like "Tearing Us Apart," "Run," and "Miss You," all of which earned AOR radio play. That radio support may have helped the album to achieve gold status in less than six months, Clapton's best commercial showing since 1981's Another Ticket, despite the album's failure to generate a hit single. The title commemorates the birth in August 1986 of Clapton's son Conor.

Tracklist:

01 - It's In The Way That You Use It
02 - Run
03 - Tearing Us Apart
04 - Bad Influence
05 - Walk Away
06 - Hung Up On Your Love
07 - Take A Chance
08 - Hold On
09 - Miss You
10 - Holy Mother
11 - Behind The Mask

Analyzed: Eric Clapton / August
––––––––––––––––––––––––––––––––––––––––

DR Peak RMS Duration Track
––––––––––––––––––––––––––––––––––––––––
DR14 -4.29 dB -20.01 dB 4:10 01-It's In The Way That You Use It
DR15 -2.46 dB -20.59 dB 3:39 02-Run
DR15 -3.23 dB -20.52 dB 4:14 03-Tearing Us Apart
DR16 -4.94 dB -22.40 dB 5:08 04-Bad Influence
DR13 -7.38 dB -23.58 dB 3:51 05-Walk Away
DR15 -3.95 dB -21.99 dB 3:58 06-Hung Up On Your Love
DR14 -3.91 dB -20.65 dB 4:53 07-Take A Chance
DR15 -3.30 dB -20.86 dB 4:55 08-Hold On
DR14 -4.80 dB -20.91 dB 5:05 09-Miss You
DR14 -5.67 dB -22.33 dB 4:54 10-Holy Mother
DR15 -3.68 dB -21.42 dB 4:49 11-Behind The Mask
––––––––––––––––––––––––––––––––––––––––

Number of tracks: 11
Official DR value: DR15

Samplerate: 48000 Hz
Channels: 2
Bits per sample: 24
Bitrate: 1622 kbps
Codec: FLAC
================================================================================


Thanks to the Original customer!