Eric Clapton - Just One Night (1980/2014) [Official Digital Download 24bit/192kHz]

Posted By: HDV
Eric Clapton - Just One Night (1980/2014) [Official Digital Download 24bit/192kHz]

Eric Clapton - Just One Night (1980/2014)
FLAC (tracks) 24 bit/192 kHz | Time - 89:12 minutes | 3,67 GB
Studio Master, Official Digital Download | Artwork: Front Cover

In December 1979, Eric Clapton toured Japan, making a stop at Tokyo's Budokan, where the results were taped and released as the double-album „Just One Night“. For this tour, Clapton's back-up band included regular Joe Cocker keyboardist Chris Stainton and famed English country picker Albert Lee. The set list ignored any history of the legendary guitarist's work as a band member, instead focusing on either solo material or blues favorites.

Although Eric Clapton has released a bevy of live albums, none of them have ever quite captured the guitarist's raw energy and dazzling virtuosity. The double live album Just One Night may have gotten closer to that elusive goal than most of its predecessors, but it is still lacking in many ways. The most notable difference between Just One Night and Clapton's other live albums is his backing band. Led by guitarist Albert Lee, the group is a collective of accomplished professionals who have managed to keep some grit in their playing. They help push Clapton along, forcing him to spit out crackling solos throughout the album. However, the performances aren't consistent on Just One Night – there are plenty of dynamic moments like "Double Trouble" and "Rambling on My Mind," but they are weighed down by pedestrian renditions of songs like "All Our Past Times." Nevertheless, more than any other Clapton live album, Just One Night suggests the guitarist's in-concert potential. It's just too bad that the recording didn't occur on a night when he did fulfill all of that potential.


01 - Tulsa Time
02 - Early In The Morning
03 - Lay Down Sally
04 - Wonderful Tonight
05 - If I Don't Be There By Morning
06 - Worried Life Blues
07 - All Our Past Times
08 - After Midnight
09 - Double Trouble
10 - Setting Me Up
11 - Blues Power
12 - Rambling On My Mind
13 - Cocaine
14 - Further On Up The Road

Analyzed: Eric Clapton / Just One Night

DR Peak RMS Duration Track
DR11 -0.16 dB -12.78 dB 4:01 01-Tulsa Time
DR13 -0.37 dB -15.40 dB 7:12 02-Early In The Morning
DR13 -0.85 dB -15.93 dB 5:33 03-Lay Down Sally
DR13 -0.19 dB -15.42 dB 4:49 04-Wonderful Tonight
DR10 -0.03 dB -11.77 dB 4:16 05-If I Don't Be There By Morning
DR12 -0.01 dB -14.65 dB 8:37 06-Worried Life Blues
DR12 -0.04 dB -13.17 dB 5:02 07-All Our Past Times
DR10 -0.86 dB -12.38 dB 5:39 08-After Midnight
DR12 -0.06 dB -15.37 dB 8:17 09-Double Trouble
DR12 -0.91 dB -13.72 dB 4:38 10-Setting Me Up
DR10 0.00 dB -12.06 dB 7:23 11-Blues Power
DR11 -0.04 dB -13.59 dB 8:49 12-Rambling On My Mind
DR12 -0.11 dB -13.08 dB 7:38 13-Cocaine
DR11 -0.33 dB -13.14 dB 7:18 14-Further On Up The Road

Number of tracks: 14
Official DR value: DR12

Samplerate: 192000 Hz
Channels: 2
Bits per sample: 24
Bitrate: 5623 kbps
Codec: FLAC

Thanks to the Original customer!