Tags
Language
Tags

Eric Clapton - Slowhand (1977/2013) [DSD64 + Hi-Res FLAC]

Posted By: HDV
Eric Clapton - Slowhand (1977/2013) [DSD64 + Hi-Res FLAC]

Eric Clapton - Slowhand (1977/2013)
DSD64 (.dsf) 1 bit/2,8 MHz | Time - 39:19 minutes | 995 MB
FLAC (tracks) 24-bit/96 kHz | Time - 39:19 minutes | 815 MB
Studio Master, Official Digital Download | Artwork: Digital booklet

This classic 1977 album featured 3 monster hits: "Cocaine", "Wonderful Tonight", "Lay Down Sally", was ranked in Rolling Stone's "500 Greatest Albums of All Time", and hit #2 on the Billboard Album Charts. Matching Clapton's legendary guitar playing with some of his greatest songwriting, the album is among the best recordings of the legendary musician's career. Everyone needs at least one copy of this classic.

After the guest-star-drenched No Reason to Cry failed to make much of an impact commercially, Eric Clapton returned to using his own band for Slowhand. The difference is substantial – where No Reason to Cry struggled hard to find the right tone, Slowhand opens with the relaxed, bluesy shuffle of J.J. Cale's "Cocaine" and sustains it throughout the course of the album. Alternating between straight blues ("Mean Old Frisco"), country ("Lay Down Sally"), mainstream rock ("Cocaine", "The Core"), and pop ("Wonderful Tonight"), Slowhand doesn't sound schizophrenic because of the band's grasp of the material. This is laid-back virtuosity – although Clapton and his band are never flashy, their playing is masterful and assured. That assurance and the album's eclectic material make Slowhand rank with 461 Ocean Boulevard as Eric Clapton's best albums.

Tracklist:

01. Cocaine
02. Wonderful Tonight
03. Lay Down Sally
04. Next Time You See Her
05. We're All The Way
06. The Core
07. May You Never
08. Mean Old Frisco
09. Peaches And Diesel

Analyzed: Eric Clapton / Slowhand
––––––––––––––––––––––––––––––––––––––––

DR Peak RMS Duration Track
––––––––––––––––––––––––––––––––––––––––
DR13 -6.06 dB -21.39 dB 3:42 01-Cocaine
DR15 -6.07 dB -22.67 dB 3:45 02-Wonderful Tonight
DR13 -6.07 dB -21.03 dB 3:56 03-Lay Down Sally
DR12 -6.06 dB -20.20 dB 4:02 04-Next Time You See Her
DR13 -7.13 dB -23.43 dB 2:34 05-We're All The Way
DR10 -6.04 dB -18.16 dB 8:46 06-The Core
DR12 -6.02 dB -19.90 dB 3:02 07-May You Never
DR12 -6.04 dB -19.89 dB 4:42 08-Mean Old Frisco
DR12 -6.03 dB -20.47 dB 4:50 09-Peaches And Diesel
––––––––––––––––––––––––––––––––––––––––

Number of tracks: 9
Official DR value: DR13

Samplerate: 2822400 Hz / PCM Samplerate: 88200 Hz
Channels: 2
Bits per sample: 1
Bitrate: 5645 kbps
Codec: DSD64
================================================================================


Thanks to the Original customer!