Tags
Language
Tags

Eric Schaefer & The Shredz - Bliss (2016) [Official Digital Download]

Posted By: HDV
Eric Schaefer & The Shredz - Bliss (2016) [Official Digital Download]

Eric Schaefer + The Shredz - Bliss (2016)
FLAC (tracks) 24-bit/44,1 kHz | Time - 42:50 minutes | 469 MB
Studio Master, Official Digital Download | Artwork: Digital booklet

On “Bliss”, Eric Schaefer and his band The Shredz blend the fusion jazz of the sixties with the jazz dub of the nineties and the club music of today to concoct an explosive hubble-bubble of a magic brew. Although it sometimes sounds like it, it’s not Voodoo,It is merely the logical continuation of what made Schaefer’s playing so unique from the outset: style and good taste, skills and know-how, complex compositions and improvisatory passion. Rooted in hardcore and matured in jazz, Schaefer plays a range that goes way beyond the scope of any academic colloquium.In 2013, to coincide with the 200th anniversary of Richard Wagner’s birth, Schaefer brought out his ACT debut as band leader in the form of “Who’s afraid of Richard W.?”. Without trepidation he gnawed Wagner’s music down to its skeleton, to then toss the bones into new constellat.



Tracklist:

01 - Abstract Dub
02 - Barber
03 - Longjam
04 - Slomojam
05 - Oistrakh
06 - No Bottom No Top
07 - Shortjam
08 - Bliss

Produced by Eric Schaefer. Engineered & Mixed by Volker Meitz.
Recorded on December 3-4, 2014 at Nordkreuz-Studio, Berlin.
Mastered by Uwe Haas.

Musicians:
Eric Schaefer - drums, modular synthesizer on "8"
John-Dennis Renken - trumpet
Volker Meitz - keyboards
John Eckhardt - bass

Analyzed: Eric Schaefer / Bliss
––––––––––––––––––––––––––––––––––––––––

DR Peak RMS Duration Track
––––––––––––––––––––––––––––––––––––––––
DR10 -0.16 dB -11.72 dB 3:56 01-Abstract Dub
DR11 -0.93 dB -14.66 dB 5:45 02-Barber
DR9 -0.11 dB -11.04 dB 9:10 03-Longjam
DR10 -0.11 dB -13.15 dB 3:02 04-Slomojam
DR7 -0.22 dB -10.42 dB 5:43 05-Oistrakh
DR10 -0.52 dB -12.63 dB 6:07 06-No Bottom No Top
DR9 -0.11 dB -12.04 dB 5:30 07-Shortjam
DR12 -0.58 dB -17.88 dB 3:38 08-Bliss
––––––––––––––––––––––––––––––––––––––––

Number of tracks: 8
Official DR value: DR10

Samplerate: 44100 Hz
Channels: 2
Bits per sample: 24
Bitrate: 1266 kbps
Codec: FLAC
================================================================================


Thanks to the Original customer!