Erik Deutsch - Creatures (2016) [DSD64 + Hi-Res FLAC]

Posted By: HDV
Erik Deutsch - Creatures (2016) [DSD64 + Hi-Res FLAC]

Erik Deutsch - Creatures (2016)
DSD64 (.dsf) 1 bit/2,8 MHz | Time - 47:00 minutes | 1,34 GB
FLAC (tracks) 24-bit/48 kHz | Time - 47:00 min | 454 MB
Studio Master, Official Digital Download | Artwork: Front cover

Born in Washington D.C. but currently living in Brooklyn, pianist/composern Erik Deutsch splits his time between his own band and backing up artists like Citizen Cope, Norah Jones, Alice Smith, Rosanne Cash and Shooter Jennings. Deutsch holds the distinction of being the only keyboardist to tour regularly with guitar master Charlie Hunter. The talented member of the new generation of jazz musicians, Deutsch's star just keeps shining brighter with each project.

Pianist, composer, arranger, and producer Erik Deutsch embarks down a path that many instrumentalists ponder, but rarely conquer: a solo instrumental album. Well-known as a go-to NYC-based keyboardist – who regularly tours alongside an impressive array of lauded artists including Citizen Cope, Shooter Jennings, and most recently Leftover Salmon, Deutsch went big and recorded his debut solo studio album in front of a live audience with a multi-camera HD shoot for a companion DVD. The recordings were captured direct to DSD via a Sonoma System with Meitner converters at Immersive Studios. A collection of nine original compositions, Creatures is produced by GRAMMY and Emmy Award-winning producer Steven Vidaic (Co-owner, Immersive Records).

Tracklist:

01 - Firefly
02 - Lover's Eyes
03 - Fish Monger
04 - Tiny Lion
05 - Black Flies
06 - Incandescence
07 - Prayer For Zimawanga
08 - Doctor's Demon
09 - Outlaw Boogie

Analyzed: Erik Deutsch / Creatures
––––––––––––––––––––––––––––––––––––––––

DR Peak RMS Duration Track
––––––––––––––––––––––––––––––––––––––––
DR14 -10.32 dB -30.20 dB 6:23 01-Firefly
DR15 -6.43 dB -27.70 dB 5:19 02-Lover's Eyes
DR14 -12.20 dB -30.84 dB 4:39 03-Fish Monger
DR15 -12.32 dB -32.03 dB 4:52 04-Tiny Lion
DR13 -12.81 dB -30.04 dB 4:34 05-Black Flies
DR13 -12.27 dB -31.43 dB 5:36 06-Incandescence
DR15 -16.42 dB -36.54 dB 3:43 07-Prayer For Zimawanga
DR16 -14.33 dB -37.27 dB 7:10 08-Doctor's Demon
DR13 -8.17 dB -25.88 dB 4:44 09-Outlaw Boogie
––––––––––––––––––––––––––––––––––––––––

Number of tracks: 9
Official DR value: DR14

Samplerate: 2822400 Hz / PCM Samplerate: 88200 Hz
Channels: 2
Bits per sample: 1
Bitrate: 5645 kbps
Codec: DSD64
================================================================================


Thanks to the Original customer!