Ernie Heckscher & His Fairmont Orchestra - Dance To The Hits Heckscher Style (1967/2015) [Official Digital Download 24/96]

Posted By: HDV
Ernie Heckscher & His Fairmont Orchestra - Dance To The Hits Heckscher Style (1967/2015) [Official Digital Download 24/96]

Ernie Heckscher & His Fairmont Orchestra - Dance To The Hits Heckscher Style (1967/2015)
FLAC (tracks) 24-bit/96 kHz | Time - 31:58 minutes | 750 MB
Studio Master, Official Digital Download | Artwork: Front cover

Ernie Hecks has been playing some lilting dance music at San Francisco's Fairmont Hotel but it's only been within the past years that the disk-buyinq crowd has caught up with him. Here again art the smooth Heckscher sounds on pops and show tunes for more dancing and listening pleasure.

Tracklist:

01 - Cast Your Fate to the Wind
02 - My Heart Is Still in Venice
03 - A Taste of Honey
04 - Unchained Melody
05 - Near You
06 - What's New Pussycat
07 - Marie
08 - A Walk in the Black Forest
09 - Love Theme from The Sandpiper
10 - Two Different Worlds
11 - Theme from a Summer Place
12 - The In Crowd

Analyzed: Ernie Heckscher & His Fairmont Orchestra / Dance to the Hits Heckscher Style
––––––––––––––––––––––––––––––––––––––––

DR Peak RMS Duration Track
––––––––––––––––––––––––––––––––––––––––
DR11 -0.57 dB -14.18 dB 2:52 01-Cast Your Fate to the Wind
DR9 -0.69 dB -13.18 dB 2:28 02-My Heart Is Still in Venice
DR10 -0.71 dB -12.29 dB 2:41 03-A Taste of Honey
DR9 -1.41 dB -13.55 dB 2:30 04-Unchained Melody
DR9 -0.50 dB -12.80 dB 2:39 05-Near You
DR10 -0.65 dB -12.34 dB 2:28 06-What's New Pussycat
DR9 -0.52 dB -12.12 dB 2:45 07-Marie
DR11 -0.51 dB -14.74 dB 2:47 08-A Walk in the Black Forest
DR9 -0.66 dB -12.54 dB 2:49 09-Love Theme from The Sandpiper
DR11 -0.62 dB -13.31 dB 2:29 10-Two Different Worlds
DR9 -0.86 dB -12.90 dB 3:04 11-Theme from a Summer Place
DR10 -0.60 dB -12.61 dB 2:26 12-The In Crowd
––––––––––––––––––––––––––––––––––––––––

Number of tracks: 12
Official DR value: DR10

Samplerate: 96000 Hz
Channels: 2
Bits per sample: 24
Bitrate: 3187 kbps
Codec: FLAC
================================================================================


Thanks to the Original customer!

Ernie Heckscher & His Fair...Whole World Dances (1965/2015)