Esther Phillips - Black-Eyed Blues (CTI 50th Anniversary Special Collection) (1973/2017) [Official Digital Download 24/192]

Posted By: delpotro
Esther Phillips - Black-Eyed Blues (CTI 50th Anniversary Special Collection) (1973/2017) [Official Digital Download 24/192]

Esther Phillips - Black-Eyed Blues (CTI 50th Anniversary Special Collection) (1973/2017)
FLAC (tracks) 24-bit/192 kHz | Front Cover | Time - 34:16 minutes | 1,36 GB
R'n'B, Soul, Blues, Jazz, Vocal Jazz | Label: King Records, Official Digital Download

"Plenty of bongos and a liberal sprinkling of string-laden soul ballads and the extended soul-blues number seemingly de-rigeur for serious soul records of the 70s There's the cream of soul sessioneers and it's produced by Rudy Van Gelder of Blue Note fame so it all sounds tremendous. A little light on truly striking material to elevate it to classic status but it really hits the spot if you're in a red wine and 70s soul kind of place."

Tracklist:
1. Justified (05:38)
2. I've Only Known A Stranger (03:30)
3. I Got It Bad And That Ain't Good (06:40)
4. Black-Eyed Blues (06:00)
5. Too Many Roads (04:35)
6. You Could Have Had Me, Baby (07:30)

foobar2000 1.4.1 / Dynamic Range Meter 1.1.1
log date: 2020-12-21 11:36:36

––––––––––––––––––––––––––––––––––––––––
Analyzed: Esther Phillips / Black Eyed Blues
––––––––––––––––––––––––––––––––––––––––

DR Peak RMS Duration Track
––––––––––––––––––––––––––––––––––––––––
DR12 -0.51 dB -15.44 dB 5:39 01-Justified
DR11 -1.00 dB -14.87 dB 3:34 02-I've Only Known A Stranger
DR12 -0.01 dB -14.39 dB 6:44 03-I Got It Bad And That Ain't Good
DR14 -0.01 dB -16.09 dB 6:14 04-Black-Eyed Blues
DR12 -0.01 dB -16.19 dB 4:38 05-Too Many Roads
DR13 -0.01 dB -16.79 dB 7:28 06-You Could Have Had Me, Baby
––––––––––––––––––––––––––––––––––––––––

Number of tracks: 6
Official DR value: DR13

Samplerate: 192000 Hz
Channels: 2
Bits per sample: 24
Bitrate: 5658 kbps
Codec: FLAC
================================================================================


Thanks to the Original customer!