European Jazz Trio - West Village (2018) [Official Digital Download 24-bit/96kHz]

Posted By: HDV
European Jazz Trio - West Village (2018) [Official Digital Download 24-bit/96kHz]

European Jazz Trio - West Village (2018)
FLAC (tracks) 24-bit/96 kHz | Time - 53:37 minutes | 1,09 GB
Studio Master, Official Digital Download | Artwork: Digital booklet

The European Jazz Trio consists of pianist Marc van Roon, Frans deHoeven on bass, and drummer Roy Dackus who have been performing together since 1995. This most recent album celebrates the music from the West Village in various distinct arrangements from the members of this ensemble.


The European Jazz Trio has been recording and performing since 1995, when it released a CD of Beatles' songs in fresh arrangements. On each album, the trio has taken songs in every style, shape and color, and has given them a jazz interpretation. For the trio 'Jazz' means to have the freedom to combine and mix styles, melodies, sounds and rhythms to create something fresh and surprising.

Tracklist:

01 - When Autumn Comes
02 - Blue in You
03 - Sad Tune
04 - 30 Something
05 - The Korean
06 - Gloomy Letter
07 - Gwanghwamun Love Song
08 - Regrets
09 - When I Got You on My Mind
10 - A Doll's Dream
11 - As Everyone Does

Arrangements by European Jazz Trio.
Produced by European Jazz Trio, Jihoon Han & In-Hyuk Kim.
Balance Engineer: Jung-Hoon Choi. Assistant Engineer: Sung-Bum Park.
Recorded & Mastered at Audioguy Studio, Seoul, South Korea.

Musicians:
Marc van Roon - piano
Frans van der Hoeven - bass
Roy Dackus - drums
Sojung Lee - guest vocals on "8"

Analyzed: European Jazz Trio / West Village
––––––––––––––––––––––––––––––––––––––––

DR Peak RMS Duration Track
––––––––––––––––––––––––––––––––––––––––
DR11 -0.14 dB -14.45 dB 4:55 01-When Autumn Comes
DR13 -0.43 dB -15.54 dB 4:09 02-Blue in You
DR14 -0.30 dB -18.77 dB 6:15 03-Sad Tune
DR12 -0.79 dB -16.58 dB 4:55 04-30 Something
DR13 -0.11 dB -16.42 dB 5:30 05-The Korean
DR13 -0.26 dB -16.85 dB 6:09 06-Gloomy Letter
DR12 -0.07 dB -14.72 dB 4:38 07-Gwanghwamun Love Song
DR12 -0.19 dB -18.42 dB 4:14 08-Regrets
DR12 0.00 dB -15.00 dB 5:13 09-When I Got You on My Mind
DR13 0.00 dB -16.24 dB 4:16 10-A Doll's Dream
DR13 0.00 dB -15.89 dB 3:24 11-As Everyone Does
––––––––––––––––––––––––––––––––––––––––

Number of tracks: 11
Official DR value: DR12

Samplerate: 96000 Hz
Channels: 2
Bits per sample: 24
Bitrate: 2643 kbps
Codec: FLAC
================================================================================


Thanks to the Original customer!