Tags
Language
Tags

Everlast - The Life Acoustic (2013) [Official Digital Download]

Posted By: HDV
Everlast - The Life Acoustic (2013) [Official Digital Download]

Everlast - The Life Acoustic (2013)
FLAC (tracks) 24 bit/44,1 kHz | Time - 45:11 minutes | 501 MB
Studio Master, Official Digital Download | Artwork: Front cover

The Life Acoustic is the newest album by House of Pain front-man Everlast. The songs on the album are from previous Everlast records that were largely ignored, re-done in an acoustic, stripped-down setting. There's even an acoustic version of "Jump Around", House of Pain's most famous 1992 hit.

Everlast refashioned himself into a badass troubadour only a few years after pulling the plug on House of Pain, so his release of an all-acoustic album isn't such a surprise (although it has to be said, the Wes Anderson parody of the title and artwork of The Life Acoustic is indeed a shock). Strictly speaking, the 12 songs on The Life Acoustic aren't just Everlast-with-guitar. There are some subtle additions of keyboards or another six-string and, when he gets around to singing the immortal HOP song "Jump Around," there's a rhythm section, too. This stripped-down setting emphasizes some lingering blues and country influences lying within his songs – listen to the swinging skip of "My Medicine" – and sometimes it makes him seem like a bit of a sensitive singer/songwriter. Either way, his songs are served well in this intimate setting and the record also reveals Everlast has a deeper catalog than some might think.

Tracklist:

01 - Sad Girl
02 - Black Jesus
03 - Today
04 - Broken
05 - Stone in My Hand
06 - Weakness
07 - Children's Story
08 - Stay
09 - My Medicine
10 - Lonely Road
11 - Grandma's Hand
12 - Jump Around?

Analyzed: Everlast / The Life Acoustic
––––––––––––––––––––––––––––––––––––––––

DR Peak RMS Duration Track
––––––––––––––––––––––––––––––––––––––––
DR11 -0.20 dB -12.66 dB 4:35 01-Sad Girl
DR11 -0.20 dB -12.31 dB 3:49 02-Black Jesus
DR10 -0.20 dB -11.74 dB 4:56 03-Today
DR10 -0.20 dB -11.80 dB 4:48 04-Broken
DR11 -0.20 dB -12.28 dB 3:37 05-Stone in My Hand
DR11 -0.20 dB -12.92 dB 3:52 06-Weakness
DR12 -0.20 dB -12.91 dB 3:09 07-Children's Story
DR13 -0.20 dB -15.45 dB 4:31 08-Stay
DR10 -0.20 dB -10.77 dB 2:44 09-My Medicine
DR11 -0.20 dB -13.62 dB 3:45 10-Lonely Road
DR12 -0.20 dB -14.18 dB 1:59 11-Grandma's Hand
DR12 -0.20 dB -13.16 dB 3:26 12-Jump Around?
––––––––––––––––––––––––––––––––––––––––

Number of tracks: 12
Official DR value: DR11

Samplerate: 44100 Hz
Channels: 2
Bits per sample: 24
Bitrate: 1448 kbps
Codec: FLAC
================================================================================


Thanks to the Original customer!