Fabien Mary - Left Arm Blues (And Other New York Stories) (2018) [Official Digital Download]

Posted By: HDV
Fabien Mary - Left Arm Blues (And Other New York Stories) (2018) [Official Digital Download]

Fabien Mary - Left Arm Blues (And Other New York Stories) (2018)
FLAC (tracks) 24-bit/44,1 kHz | Time - 44:31 minutes | 545 MB
Studio Master, Official Digital Download | Artwork: Front cover

Fabien Mary is one of the best trumpet player of the contemporary jazz scene. He played with Wynton Marsalis, Diana Krall, Benny Golson, Harold Mabern, Johnny Griffin, Steve Turre, Michel Legrand, Archie Shepp and many others. The story behind this album is a broken arm in New York. Or how French trumpet player Fabien Mary transcended his forced immobilization by composing ‘Left Arm Blues’, an album of originals that refect the hopes from a young jazzman in a city that never sleeps and always swings.


Absolutely essential musician on the current jazz scene, the trumpet player Fabien Mary transmuted the frustration of not being able to play in writing frenzy, laying on the music paper new lines, arranging for a training of eight musicians a directory directly inspired from his New York experience that gave the material of a fully written record of the left hand: Left Arm Blues. With five nominations for the Django Reinhardt Award "French musician of the year" by the Jazz Academy over the years and an impressive course where we find it alongside Wynton Marsalis, Diana Krall, Benny Golson, Harold Mabern, Johnny Griffin, Steve Turre, Michel Legrand, Archie Shepp and many others, this musician continues to fascinate with his talent, his class and his musical requirement.

Tracklist:

01 - Don't Look Back
02 - Quercus Robur
03 - Song for Milie
04 - Left Arm Blues
05 - Dark 'n' Stormy
06 - Walk on the Highline
07 - Autumn Melodie
08 - You Make It Feel So Fun
09 - All the Things You Are

Musicians:
Fabien Mary - trumpet
Pierrick Pedron - alto saxophone
David Sauzay - tenor saxophone, flute
Thomas Savy - baryton saxophone
Jerry Edwards - trombone
Hugo Lippi - guitar
Fabien Marcoz - bass
Mourad Benhammou - drums

Analyzed: Fabien Mary / Left Arm Blues (And Other New York Stories)
––––––––––––––––––––––––––––––––––––––––

DR Peak RMS Duration Track
––––––––––––––––––––––––––––––––––––––––
DR7 0.00 dB -9.22 dB 5:39 01-Don't Look Back
DR8 0.00 dB -9.72 dB 5:25 02-Quercus Robur
DR8 -0.11 dB -11.68 dB 4:44 03-Song for Milie
DR9 0.00 dB -11.85 dB 6:00 04-Left Arm Blues
DR9 0.00 dB -10.80 dB 5:09 05-Dark 'n' Stormy
DR8 0.00 dB -12.42 dB 3:42 06-Walk on the Highline
DR8 0.00 dB -11.28 dB 5:18 07-Autumn Melodie
DR7 0.00 dB -8.96 dB 6:27 08-You Make It Feel So Fun
DR9 -1.91 dB -14.00 dB 2:06 09-All the Things You Are
––––––––––––––––––––––––––––––––––––––––

Number of tracks: 9
Official DR value: DR8

Samplerate: 44100 Hz
Channels: 2
Bits per sample: 24
Bitrate: 1314 kbps
Codec: FLAC
================================================================================


Thanks to the Original customer!