Father Tom Vaughn - Motor City Soul (1967/2017) [Official Digital Download 24-bit/192kHz]

Posted By: HDV
Father Tom Vaughn - Motor City Soul (1967/2017) [Official Digital Download 24-bit/192kHz]

Father Tom Vaughn - Motor City Soul (1967/2017)
FLAC (tracks) 24-bit/192 kHz | Time - 37:03 minutes | 1,45 GB
Studio Master, Official Digital Download | Artwork: Front cover

Father Tom Vaughn was an American jazz pianist and Episcopalian priest. Father Vaughn left St. John's Church in Midland in 1967, deciding that Los Angeles would be more conducive to his two passions, music and the ministry. "Motor City Soul" is his 1967's live album released in the end of 1967 via RCA Victor label.

Tracklist:

01 - How About You
02 - Girl Talk
03 - The Nearness of You
04 - Motor City Soul
05 - Tenderly
06 - I Wish I Knew How It Would Feel to Be Free
07 - So What
08 - Shadow of Your Smile
09 - The Girl from Ipanema
10 - The Party's Over

Recorded Live in Detroit at the famed Baker's Keyboard Lounge.

Musicians:
Father Tom Vaughn - piano
Dan Jordan - bass
Dick Riordan - drums

Analyzed: Father Tom Vaughn / Motor City Soul
––––––––––––––––––––––––––––––––––––––––

DR Peak RMS Duration Track
––––––––––––––––––––––––––––––––––––––––
DR9 -0.02 dB -11.53 dB 2:32 01-How About You (Live)
DR12 -0.02 dB -14.96 dB 4:57 02-Girl Talk (Live)
DR12 -0.02 dB -16.34 dB 3:48 03-The Nearness of You (Live)
DR10 -0.02 dB -14.30 dB 4:45 04-Motor City Soul (Live)
DR12 -0.02 dB -16.15 dB 3:12 05-Tenderly (Live)
DR11 -0.02 dB -14.19 dB 1:59 06-I Wish I Knew How It Would Feel to Be Free (Live)
DR8 -0.02 dB -12.01 dB 6:25 07-So What (Live)
DR9 -0.02 dB -12.58 dB 2:34 08-Shadow of Your Smile (Live)
DR11 -0.02 dB -14.05 dB 4:41 09-The Girl from Ipanema (Live)
DR13 -0.02 dB -17.89 dB 2:11 10-The Party's Over (Live)
––––––––––––––––––––––––––––––––––––––––

Number of tracks: 10
Official DR value: DR11

Samplerate: 192000 Hz
Channels: 2
Bits per sample: 24
Bitrate: 5132 kbps
Codec: FLAC
================================================================================


Thanks to the Original customer!

Father Tom Vaughn - Jazz In Concert At The Village Gate (1966)