Florent Pagny - Habana (2016) [Official Digital Download]

Posted By: HDV
Florent Pagny - Habana (2016) [Official Digital Download]

Florent Pagny - Habana (2016) [Limited Edition]
FLAC (tracks) 24-bit/44,1 kHz | Time - 61:49 minutes | 770 MB
Studio Master, Official Digital Download | Artwork: Front cover

French musician and actor Florent Pagny Florent Pagny returned in 2016 after an absence of more than two years with the release of his 13th studio album, "Habana", recorded in Cuba and featuring vocals in Spanish. Encore, the powerful lead single, is sung in both Spanish and French. On three tracks, Pagny is joined by the Orchestre Philharmonique de Prague. This Limited Edition features five bonus acoustic tracks.



Tracklist:

01 - Dónde Va La Vida (with Orchestre Philharmonique de Prague)
02 - Viviré
03 - Volver A Cantar
04 - Encore
05 - Habana
06 - Agua Salada
07 - Voz De Bolero
08 - Dónde Están (Duet with Raúl Paz)
09 - Falta El Ruido (with Orchestre Philharmonique de Prague)
10 - Mais où s'en va la vie (with Orchestre Philharmonique de Prague)
11 - Mais où s'en va la vie (Acoustic)*
12 - Agua Salada (Acoustic)*
13 - Encore (Acoustic)*
14 - Habana (Acoustic)*
15 - Falta El Ruido (Acoustic)*

Tracks "11-15" is the Bonus Tracks for Limited Edition.

Analyzed: Florent Pagny / Habana
––––––––––––––––––––––––––––––––––––––––

DR Peak RMS Duration Track
––––––––––––––––––––––––––––––––––––––––
DR5 0.00 dB -9.19 dB 5:00 01-Dónde Va La Vida
DR6 0.00 dB -7.54 dB 3:56 02-Viviré
DR6 0.00 dB -8.90 dB 4:19 03-Volver A Cantar
DR8 0.00 dB -11.01 dB 3:53 04-Encore
DR6 0.00 dB -7.14 dB 4:09 05-Habana
DR6 0.00 dB -8.48 dB 3:29 06-Agua Salada
DR5 0.00 dB -7.17 dB 3:33 07-Voz De Bolero
DR5 0.00 dB -7.29 dB 3:57 08-Dónde Están (Duet with Raúl Paz)
DR7 0.00 dB -9.30 dB 4:15 09-Falta El Ruido
DR5 0.00 dB -8.99 dB 4:59 10-Mais où s'en va la vie
DR6 -0.28 dB -9.30 dB 4:53 11-Mais où s'en va la vie (Acoustic)
DR7 -0.21 dB -9.14 dB 3:30 12-Agua Salada (Acoustic)
DR7 -0.32 dB -10.79 dB 3:52 13-Encore (Acoustic)
DR8 -0.47 dB -9.89 dB 4:10 14-Habana (Acoustic)
DR9 -0.63 dB -12.51 dB 3:55 15-Falta El Ruido (Acoustic)
––––––––––––––––––––––––––––––––––––––––

Number of tracks: 15
Official DR value: DR6

Samplerate: 44100 Hz
Channels: 2
Bits per sample: 24
Bitrate: 1529 kbps
Codec: FLAC
================================================================================


Thanks to the Original customer!