Foreigner - 4 (1981) [MFSL 2013] PS3 ISO + FLAC {RE-UP}

Posted By: HDAtall
Foreigner - 4 (1981) [MFSL 2013] PS3 ISO + FLAC {RE-UP}

Foreigner - 4 (1981) [MFSL 2013]
PS3 Rip | SACD ISO | DSD64 2.0 > 1-bit/2.8224 MHz | 42:35 minutes | Scans included | 1,37 GB
or FLAC(converted with foobar2000 to tracks) 24bit/88,2 kHz | Full Scans included | 924 MB
Mobile Fidelity Sound Lab # UDSACD 2053

Over the course of their first three late-'70s albums, Foreigner had firmly established themselves (along with Journey and Styx) as one of the top AOR bands of the era. But the band was still looking for that grand slam of a record that would push them to the very top of the heap. Released in 1981, 4 would be that album. In producer Robert John "Mutt" Lange – fresh off his massive success with AC/DC's Back in Black – guitarist and all-around mastermind Mick Jones found both the catalyst to achieve this and his perfect musical soulmate. Lange's legendary obsessive attention to detail and Jones' highly disciplined guitar heroics (which he never allowed to get in the way of a great song) resulted in a collaboration of unprecedented, sparkling efficiency where not a single note is wasted. "Nightlife" is only the first in a series ("Woman in Black," "Don't Let Go," the '50s-tinged "Luanne") of energetic, nearly flawless melodic rockers, and with "Juke Box Hero," the band somehow managed to create both a mainstream hit single and a highly unique-sounding track, alternating heavy metal guitar riffing, chorused vocals, and one of the ultimate "wanna be a rock star" lyrics. As for the mandatory power ballad, the band also reached unparalleled heights with "Waiting for a Girl Like You." One of the decade's most successful cross-genre tearjerkers, it has since become a staple of soft rock radio and completely eclipsed the album's other very lovely ballad, "Girl on the Moon," in the process. And last but not least, the surprisingly funky "Urgent" proved to be one of the band's most memorable and uncharacteristic smash hits, thanks to Junior Walker's signature saxophone solo. Through it all, vocalist Lou Gramm does his part, delivering a dazzling performance that confirmed his status as one of the finest voices of his generation. Three years later, Foreigner would achieve even greater success on a pop level with the uneven Agent Provocateur, but by then Jones and Gramm were locked in an escalating war of egos that would soon lead to the band's demise. All things considered, 4 remains Foreigner's career peak.

Tracklist:

01. Night Life
02. Juke Box Hero
03. Break It Up
04. Waiting For A Girl Like You
05. Luanne
06. Urgent
07. I'm Gonna Win
08. Woman In Black
09. Girl On The Moon
10. Don't Let Go

Mastered by Shawn R. Britton at Mobile Fidelity Sound Lab, Sebastopol, CA.

foobar2000 1.2.8 / Dynamic Range Meter 1.1.1

––––––––––––––––––––––––––––––––––––––––
Analyzed: FOREIGNER / 4
––––––––––––––––––––––––––––––––––––––––

DR Peak RMS Duration Track
––––––––––––––––––––––––––––––––––––––––
DR11 -6.38 dB -19.30 dB 3:50 01-Night Life
DR10 -6.21 dB -18.96 dB 4:20 02-Juke Box Hero
DR9 -6.36 dB -18.38 dB 4:13 03-Break It Up
DR12 -6.27 dB -20.38 dB 4:53 04-Waiting For A Girl Like You
DR10 -7.38 dB -19.80 dB 3:28 05-Luanne
DR13 -6.30 dB -21.04 dB 4:31 06-Urgent
DR10 -6.33 dB -19.71 dB 4:53 07-I'm Gonna Win
DR9 -6.51 dB -19.74 dB 4:46 08-Woman In Black
DR10 -7.53 dB -20.47 dB 3:53 09-Girl On The Moon
DR9 -7.20 dB -18.89 dB 3:49 10-Don't Let Go
––––––––––––––––––––––––––––––––––––––––

Number of tracks: 10
Official DR value: DR10

Samplerate: 2822400 Hz / PCM Samplerate: 88200 Hz
Channels: 2
Bits per sample: 24
Bitrate: 5645 kbps
Codec: DSD64


Thanks to PS³SACD!
Uncompressed SACD ISO size > 1,7 GB