FORQ - Threq (2017) [Official Digital Download]

Posted By: HDV
FORQ - Threq (2017) [Official Digital Download]

FORQ - Thrēq (2017)
FLAC (tracks) 24-bit/48 kHz | Time - 38:10 minutes | 495 MB
Studio Master, Official Digital Download | Artwork: Front cover

"Thrēq" is the third album from hard-hitting New York based quartet Forq, comprised of Henry Hey (keyboard), Michael League (bass), Jason “JT” Thomas (drums), and Snarky Puppy's own Chris McQueen (guitar), proving once again that this is an innovative outlet for the wacky sonic experiments of these fantastic musicians.


Forq is an instrumental quartet with an aggressive sound and a penchant for sonic exploration. Originally founded by keyboardist Henry Hey (David Bowie, Empire of the Sun, Jeff "Tain" Watts) and bassist Michael League (Grammy-winning founder of Snarky Puppy), Forq is joined by guitarist Chris McQueen (Snarky Puppy, Foe Destroyer, Bokanté) and drummer Jason "JT" Thomas (Roy Hargrove’s RH Factor, Marcus Miller, D’Angelo). Their group sound draws from various musical paths of it’s members, whether it’s Jason’s swampy grooves and shuffles, Chris’ singular sonic approach to guitar, Henry’s zeal for unique keyboard sounds and twisted ear candy, or Michael’s driving world-influenced grooves. The band pushes further down the sonic rabbit hole with the stunning new material on Thrēq.

Tracklist:

01 - Taizo
02 - Cowabunghole
03 - Tea Time
04 - Blue Diamonds
05 - Stannic
06 - Melt
07 - Fenix

Analyzed: FORQ / Thrēq
––––––––––––––––––––––––––––––––––––––––

DR Peak RMS Duration Track
––––––––––––––––––––––––––––––––––––––––
DR7 -0.40 dB -10.87 dB 5:41 01-Taizo
DR6 -0.40 dB -8.57 dB 5:58 02-Cowabunghole
DR6 -0.40 dB -8.14 dB 6:18 03-Tea Time
DR9 -0.40 dB -11.37 dB 3:38 04-Blue Diamonds
DR5 -0.40 dB -7.98 dB 3:47 05-Stannic
DR5 -0.40 dB -8.42 dB 6:41 06-Melt
DR7 -0.40 dB -8.93 dB 6:08 07-Fenix
––––––––––––––––––––––––––––––––––––––––

Number of tracks: 7
Official DR value: DR7

Samplerate: 48000 Hz
Channels: 2
Bits per sample: 24
Bitrate: 1793 kbps
Codec: FLAC
================================================================================


Thanks to the Original customer!