Francesca Dego & Francesca Leonardi - Il Cannone: Francesca Dego plays Paganini's violin (2021) [Of Digital Download 24/96]

Posted By: delpotro
Francesca Dego & Francesca Leonardi - Il Cannone: Francesca Dego plays Paganini's violin (2021) [Of Digital Download 24/96]

Francesca Dego & Francesca Leonardi - Il Cannone: Francesca Dego plays Paganini's violin (2021)
FLAC (tracks) 24-bit/96 kHz | Front Cover & Digital Booklet | Time - 64:03 minutes | 1,16 GB
Classical | Label: Chandos Records, Official Digital Download

Paganini’s violin, the legendary ‘il Cannone’, made by Giuseppe Guarneri del Gesù in 1743, is one of the most important musical instruments in the history of Western music. Paganini was the greatest virtuoso of his time, acclaimed throughout Europe and an inspiration to performers and composers alike. On his death, he bequeathed ‘il Cannone’ to his home city of Genoa, where it is permanently housed under high security in the Town Hall. It has been heard on record just a handful of times. Francesca Dego was given the honour of recording with it after the success of her first performance on the instrument, in October 2019, when she was invited to play Paganini’s First Violin Concerto at the Paganini Celebratory Concert at Teatro Carlo Felice, in Genoa. Francesca Dego comments: ‘I feel so privileged to be able to share the soul of ‘il Cannone’ in a new recording. I remember thinki ng long and hard about the ideal programme and carefully selecting a series of works paying homage to Paganini. The ‘Cannon’ has pretty much only ever been used to record music by Paganini, so the idea of its celebrated tone teaming up with composers who idolised the Italian virtuoso throughout history is really exciting to me!’

Tracklist:
1. Francesca Dego & Francesca Leonardi – Violin Concerto No. 2 in B Minor, Op. 7, MS 48: III. Rondo "La clochette" (Arr. F. Kreisler for Violin & Piano) (06:39)
2. Francesca Dego – Recitativo und Scherzo-Caprice in D Minor, Op. 6: I. Recitativo (02:32)
3. Francesca Dego – Recitativo und Scherzo-Caprice in D Minor, Op. 6: II. Scherzo-Caprice (02:04)
4. Francesca Dego – The Red Violin Caprices (08:14)
5. Francesca Dego – Come d'autunno (04:35)
6. Francesca Dego & Francesca Leonardi – Cantabile in D Major, Op. 17, MS 109 (Arr. C. Boccadoro for Violin & Piano) (05:10)
7. Francesca Dego & Francesca Leonardi – Péchés de vieillesse, Vol. 9: No. 4, Un mot à Paganini (09:10)
8. Francesca Dego – A Paganini (10:48)
9. Francesca Dego & Francesca Leonardi – 3 Caprices de Paganini, Op. 40: No. 1, — (After Caprice No. 20) (03:23)
10. Francesca Dego & Francesca Leonardi – 3 Caprices de Paganini, Op. 40: No. 2, — (After Caprice No. 21) (02:45)
11. Francesca Dego & Francesca Leonardi – 3 Caprices de Paganini, Op. 40: No. 3, — (After Caprice No. 24) (08:38)

foobar2000 1.4.1 / Dynamic Range Meter 1.1.1
log date: 2021-02-23 15:41:23

––––––––––––––––––––––––––––––––––––––––
Analyzed: Francesca Dego & Francesca Leonardi / Il Cannone: Francesca Dego Plays Paganini's Violin
––––––––––––––––––––––––––––––––––––––––

DR Peak RMS Duration Track
––––––––––––––––––––––––––––––––––––––––
DR15 -2.30 dB -23.23 dB 6:39 01-Paganini: Violin Concerto No. 2 in B Minor, Op. 7, MS 48: III. Rondo "La clochette" (Arr. F. Kreisler for Violin & Piano)
DR14 -7.25 dB -26.44 dB 2:33 02-Kreisler: Recitativo und Scherzo-Caprice in D Minor, Op. 6: I. Recitativo
DR13 -6.07 dB -24.91 dB 2:05 03-Kreisler: Recitativo und Scherzo-Caprice in D Minor, Op. 6: II. Scherzo-Caprice
DR15 -5.85 dB -25.90 dB 8:15 04-Corigliano: The Red Violin Caprices
DR13 -9.13 dB -29.26 dB 4:36 05-Boccadoro: Come d'autunno
DR12 -7.90 dB -24.96 dB 5:11 06-Paganini: Cantabile in D Major, Op. 17, MS 109 (Arr. C. Boccadoro for Violin & Piano)
DR16 -4.04 dB -25.85 dB 9:10 07-Rossini: Péchés de vieillesse, Vol. 9: No. 4, Un mot à Paganini
DR16 -5.26 dB -26.16 dB 10:49 08-Schnittke: A Paganini
DR16 -0.86 dB -22.30 dB 3:23 09-Szymanowski: 3 Caprices de Paganini, Op. 40: No. 1, — (After Caprice No. 20)
DR14 -1.96 dB -21.19 dB 2:45 10-Szymanowski: 3 Caprices de Paganini, Op. 40: No. 2, — (After Caprice No. 21)
DR14 -0.86 dB -20.08 dB 8:38 11-Szymanowski: 3 Caprices de Paganini, Op. 40: No. 3, — (After Caprice No. 24)
––––––––––––––––––––––––––––––––––––––––

Number of tracks: 11
Official DR value: DR14

Samplerate: 96000 Hz
Channels: 2
Bits per sample: 24
Bitrate: 2662 kbps
Codec: FLAC
================================================================================


Thanks to the Original customer!