François-Xavier Roth & Les Siècles - Stravinsky: Ballets Russes (2021) [Official Digital Download]

Posted By: delpotro
François-Xavier Roth & Les Siècles - Stravinsky: Ballets Russes (2021) [Official Digital Download]

François-Xavier Roth & Les Siècles - Stravinsky: Ballets Russes (2021)
FLAC (tracks) 24-bit/44,1 kHz | Front Cover & Digital Booklet | Time - 129:05 minutes | 1,2 GB
Classical | Label: harmonia mundi, Official Digital Download

Paris, early Twentieth Century: in the space of three ballets, a previously unknown Russian composer revolutionised the music of his time. With The Firebird and Petrushka, respectively fairytale and folktale, and of course The Rite of Spring, a telluric invocation with its insanely innovative harmonies and rhythms, Stravinsky dynamised the Late Romantic orchestra, taking it to literally unheard-of places.

Among the very first musicians to perform these works on the instruments that witnessed their birth, François-Xavier Roth and Les Siècles inaugurated a far-reaching rediscovery of these seminal pieces, giving today’s listeners an opportunity to appreciate to the full their audacity and their harsh, savage power.

Tracklist:
Disc 1 (01:08:44)
1. Michaël Rolland, François-Xavier Roth & Les Siècles – Le Sacre du printemps, K. 15, Premier tableau: L'Adoration de la terre (03:24)
2. François-Xavier Roth & Les Siècles – Le Sacre du printemps, K. 15, Premier tableau: L'Adoration de la terre, Danse des adolescentes (03:02)
3. François-Xavier Roth & Les Siècles – Le Sacre du printemps, K. 15, Premier tableau: L'Adoration de la terre, Jeu du rapt (01:19)
4. François-Xavier Roth & Les Siècles – Le Sacre du printemps, K. 15, Premier tableau: L'Adoration de la terre, Rondes printanières (03:25)
5. François-Xavier Roth & Les Siècles – Le Sacre du printemps, K. 15, Premier tableau: L'Adoration de la terre, Jeu des cités rivales (01:47)
6. François-Xavier Roth & Les Siècles – Le Sacre du printemps, K. 15, Premier tableau: L'Adoration de la terre, Cortège du Sage (00:43)
7. François-Xavier Roth & Les Siècles – Le Sacre du printemps, K. 15, Premier tableau: L'Adoration de la terre, Le Sage (00:24)
8. François-Xavier Roth & Les Siècles – Le Sacre du printemps, K. 15, Premier tableau: L'Adoration de la terre, Danse de la Terre (01:17)
9. François-Xavier Roth & Les Siècles – Le Sacre du printemps, K. 15, Second tableau: Le Sacrifice, Introduction (04:30)
10. François-Xavier Roth & Les Siècles – Le Sacre du printemps, K. 15, Second tableau: Le Sacrifice, Cercles mystérieux des adolescentes (03:22)
11. François-Xavier Roth & Les Siècles – Le Sacre du printemps, K. 15, Second tableau: Le Sacrifice, Glorification de l'élue (01:25)
12. François-Xavier Roth & Les Siècles – Le Sacre du printemps, K. 15, Second tableau: Le Sacrifice, Évocation des ancêtres (04:35)
13. François-Xavier Roth & Les Siècles – Le Sacre du printemps, K. 15, Second tableau: Le Sacrifice, Danse sacrale (04:38)
14. François-Xavier Roth & Les Siècles – Petrouchka, K. 12, Premier tableau: Fête populaire de la Semaine Grasse (05:20)
15. François-Xavier Roth, Marion Ralincourt & Les Siècles – Petrouchka, K. 12, Premier tableau: Le Tour de Passe-Passe (01:55)
16. François-Xavier Roth & Les Siècles – Petrouchka, K. 12, Premier tableau: Danse russe (02:47)
17. François-Xavier Roth & Les Siècles – Petrouchka, SK. 12, econd tableau: Chez Petrouchka (04:20)
18. François-Xavier Roth & Les Siècles – Petrouchka, K. 12, Troisième tableau: Chez le Maure (03:06)
19. François-Xavier Roth & Les Siècles – Petrouchka, K. 12, Troisième tableau: Danse de la Ballerine (00:44)
20. François-Xavier Roth & Les Siècles – Petrouchka, K. 12, Troisième tableau: Valse de la Ballerine et du Maure (03:04)
21. François-Xavier Roth & Les Siècles – Petrouchka, K. 12, Quatrième tableau: Fête populaire de la Semaine Grasse (vers le soir) (01:13)
22. François-Xavier Roth & Les Siècles – Petrouchka, K. 12, Quatrième tableau: Danse des nounous (04:56)
23. François-Xavier Roth & Les Siècles – Petrouchka, K. 12, Quatrième tableau: Danse des cochers et des palefreniers (02:03)
24. François-Xavier Roth & Les Siècles – Petrouchka, K. 12, Quatrième tableau: Les déguisés (05:25)

Disc 2 (59:57)
1. François-Xavier Roth & Les Siècles – Raymonda, Op. 57, Act II: Entrée des Sarrazins (00:51)
2. François-Xavier Roth & Les Siècles – Raymonda, Op. 57, Act II: Danse orientale (01:41)
3. François-Xavier Roth & Les Siècles – The Seasons, Op. 67: Pas de deux, Bacchanale (03:15)
4. François-Xavier Roth & Les Siècles – 6 Charakterstücke, Op. 33: No. 5. Danse orientale (03:13)
5. François-Xavier Roth & Les Siècles – Egyptian Nights, Op. 50: Danse égyptienne (01:29)
6. François-Xavier Roth & Les Siècles – Egyptian Nights, Op. 50: Charmeuse des serpents (01:15)
7. François-Xavier Roth & Les Siècles – Egyptian Nights, Op. 50: Danse des Ghazies (02:15)
8. François-Xavier Roth & Les Siècles – Lyric Pieces, Op. 71: No. 3. Småtroll (01:57)
9. François-Xavier Roth & Les Siècles – L'Oiseau de feu, K. 10: Introduction (02:42)
10. François-Xavier Roth & Les Siècles – L'Oiseau de feu, K. 10, Premier tableau: Le Jardin enchanté de Kachtcheï (01:54)
11. François-Xavier Roth & Les Siècles – L'Oiseau de feu, K. 10, Premier tableau: Apparition de l'Oiseau de feu, poursuivi par Ivan Tsarévitch (02:15)
12. François-Xavier Roth & Les Siècles – L'Oiseau de feu, K. 10, Premier tableau: Danse de l'Oiseau de feu (01:22)
13. François-Xavier Roth & Les Siècles – L'Oiseau de feu, K. 10, Premier tableau: Capture de l'Oiseau de feu par Ivan Tsarévitch (00:48)
14. François-Xavier Roth & Les Siècles – L'Oiseau de feu, K. 10, Premier tableau: Supplications de l'Oiseau de feu (05:17)
15. François-Xavier Roth & Les Siècles – L'Oiseau de feu, K. 10, Premier tableau: Apparition des treize princesses enchantées (02:17)
16. François-Xavier Roth & Les Siècles – L'Oiseau de feu, K. 10, Premier tableau: Jeu des princesses avec les pommes d'or (02:24)
17. François-Xavier Roth & Les Siècles – L'Oiseau de feu, K. 10, Premier tableau: Brusque apparition d'Ivan Tsarévitch (01:14)
18. François-Xavier Roth & Les Siècles – L'Oiseau de feu, K. 10, Premier tableau: Khorovode (Ronde) des princesses (04:13)
19. François-Xavier Roth & Les Siècles – L'Oiseau de feu, K. 10, Premier tableau: Aurore (01:29)
20. François-Xavier Roth & Les Siècles – L'Oiseau de feu, K. 10, Premier tableau: Carillon féerique, apparition des monstres-gardiens de Kachtcheï et capture d'Ivan Tsarévitch (01:30)
21. François-Xavier Roth & Les Siècles – L'Oiseau de feu, K. 10, Premier tableau: Arrivée de Kachtcheï l'Immortel (01:07)
22. François-Xavier Roth & Les Siècles – L'Oiseau de feu, K. 10, Premier tableau: Dialogue de Kachtcheï avec Ivan Tsarévitch (01:01)
23. François-Xavier Roth & Les Siècles – L'Oiseau de feu, K. 10, Premier tableau: Intercession des princesses (01:00)
24. François-Xavier Roth & Les Siècles – L'Oiseau de feu, K. 10, Premier tableau: Apparition de l'Oiseau de feu (00:29)
25. François-Xavier Roth & Les Siècles – L'Oiseau de feu, K. 10, Premier tableau: Danse de la suite de Kachtcheï, enchantée par l'Oiseau de feu (00:42)
26. François-Xavier Roth & Les Siècles – L'Oiseau de feu, K. 10, Premier tableau: Danse infernale de tous les sujets de Kachtcheï (03:57)
27. François-Xavier Roth & Les Siècles – L'Oiseau de feu, K. 10, Premier tableau: Berceuse (L'Oiseau de feu) (03:00)
28. François-Xavier Roth & Les Siècles – L'Oiseau de feu, K. 10, Premier tableau: Réveil de Kachtcheï (01:03)
29. François-Xavier Roth & Les Siècles – L'Oiseau de feu, K. 10, Premier tableau: Mort de Kachtcheï (00:05)
30. François-Xavier Roth & Les Siècles – L'Oiseau de feu, K. 10, Premier tableau: Profondes ténèbres (01:09)
31. François-Xavier Roth & Les Siècles – L'Oiseau de feu, K. 10, Second tableau: Disparition du palais et des sortilèges de Kachtcheï, animation des chevaliers pétrifiés, allégresse générale (03:03)

foobar2000 1.4.1 / Dynamic Range Meter 1.1.1
log date: 2021-06-23 17:15:20

––––––––––––––––––––––––––––––––––––––––
Analyzed: François-Xavier Roth, Les Siècles / Stravinsky: Ballets Russes
––––––––––––––––––––––––––––––––––––––––

DR Peak RMS Duration Track
––––––––––––––––––––––––––––––––––––––––
DR13 -9.26 dB -28.89 dB 3:24 01-Stravinsky: Le Sacre du printemps, K. 15, Premier tableau: L'Adoration de la terre
DR14 -1.52 dB -23.07 dB 3:02 02-Stravinsky: Le Sacre du printemps, Premier tableau: L'Adoration de la terre, Danse des adolescentes
DR14 -0.76 dB -19.74 dB 1:19 03-Stravinsky: Le Sacre du printemps, Premier tableau: L'Adoration de la terre, Jeu du rapt
DR14 -0.14 dB -21.14 dB 3:25 04-Stravinsky: Le Sacre du printemps, Premier tableau: L'Adoration de la terre, Rondes printanières
DR12 -3.47 dB -19.65 dB 1:48 05-Stravinsky: Le Sacre du printemps, Premier tableau: L'Adoration de la terre, Jeu des cités rivales
DR11 -1.61 dB -16.63 dB 0:43 06-Stravinsky: Le Sacre du printemps, Premier tableau: L'Adoration de la terre, Cortège du Sage
DR10 -25.10 dB -40.33 dB 0:25 07-Stravinsky: Le Sacre du printemps, Premier tableau: L'Adoration de la terre, Le Sage
DR12 -0.64 dB -18.77 dB 1:17 08-Stravinsky: Le Sacre du printemps, Premier tableau: L'Adoration de la terre, Danse de la Terre
DR15 -8.16 dB -29.92 dB 4:30 09-Stravinsky: Le Sacre du printemps, Second tableau: Le Sacrifice, Introduction
DR16 -2.48 dB -25.74 dB 3:23 10-Stravinsky: Le Sacre du printemps, Second tableau: Le Sacrifice, Cercles mystérieux des adolescentes
DR14 -0.53 dB -18.69 dB 1:25 11-Stravinsky: Le Sacre du printemps, Second tableau: Le Sacrifice, Glorification de l'élue
DR13 -1.35 dB -21.40 dB 4:36 12-Stravinsky: Le Sacre du printemps, Second tableau: Le Sacrifice, Évocation des ancêtres
DR14 0.00 dB -18.00 dB 4:39 13-Stravinsky: Le Sacre du printemps, Second tableau: Le Sacrifice, Danse sacrale
DR13 -0.20 dB -20.42 dB 5:20 14-Stravinsky: Petrouchka, K. 12, Premier tableau: Fête populaire de la Semaine Grasse
DR12 -17.18 dB -36.71 dB 1:55 15-Stravinsky: Petrouchka, Premier tableau: Le Tour de Passe-Passe
DR13 -0.41 dB -22.44 dB 2:47 16-Stravinsky: Petrouchka, Premier tableau: Danse russe
DR14 -2.85 dB -26.70 dB 4:20 17-Stravinsky: Petrouchka, Second tableau: Chez Petrouchka
DR15 -2.97 dB -26.44 dB 3:06 18-Stravinsky: Petrouchka, Troisième tableau: Chez le Maure
DR13 -11.52 dB -31.99 dB 0:44 19-Stravinsky: Petrouchka, Troisième tableau: Danse de la Ballerine
DR19 -1.41 dB -26.89 dB 3:05 20-Stravinsky: Petrouchka, Troisième tableau: Valse de la Ballerine et du Maure
DR11 -4.88 dB -19.84 dB 1:14 21-Stravinsky: Petrouchka, Quatrième tableau: Fête populaire de la Semaine Grasse (vers le soir)
DR13 -4.09 dB -23.94 dB 4:56 22-Stravinsky: Petrouchka, Quatrième tableau: Danse des nounous
DR13 -1.50 dB -19.11 dB 2:03 23-Stravinsky: Petrouchka, Quatrième tableau: Danse des cochers et des palefreniers
DR15 -3.22 dB -27.87 dB 5:25 24-Stravinsky: Petrouchka, Quatrième tableau: Les déguisés
DR12 -0.70 dB -18.87 dB 0:52 25-Glazunov: Raymonda, Op. 57, Act II: Entrée des Sarrazins
DR14 -2.21 dB -23.02 dB 1:41 26-Glazunov: Raymonda, Op. 57, Act II: Danse orientale
DR12 -2.40 dB -19.32 dB 3:16 27-Glazunov: The Seasons, Op. 67: Pas de deux, Bacchanale
DR13 -9.08 dB -25.54 dB 3:14 28-Sinding: 6 Charakterstücke, Op. 33: No. 5. Danse orientale
DR12 -5.70 dB -22.21 dB 1:29 29-Arensky: Egyptian Nights, Op. 50: Danse égyptienne
DR11 -4.37 dB -25.33 dB 1:16 30-Arensky: Egyptian Nights, Op. 50: Charmeuse des serpents
DR12 -2.17 dB -20.43 dB 2:15 31-Arensky: Egyptian Nights, Op. 50: Danse des Ghazies
DR15 -1.62 dB -23.86 dB 1:58 32-Grieg: Lyric Pieces, Op. 71: No. 3. Småtroll
DR10 -7.28 dB -30.15 dB 2:43 33-Stravinsky: L'Oiseau de feu, K. 10: Introduction
DR13 -6.40 dB -27.02 dB 1:54 34-Stravinsky: L'Oiseau de feu, Premier tableau: Le Jardin enchanté de Kachtcheï
DR14 -0.98 dB -23.60 dB 2:16 35-Stravinsky: L'Oiseau de feu, Premier tableau: Apparition de l'Oiseau de feu, poursuivi par Ivan Tsarévitch
DR14 0.00 dB -20.89 dB 1:23 36-Stravinsky: L'Oiseau de feu, Premier tableau: Danse de l'Oiseau de feu
DR13 -5.33 dB -22.49 dB 0:49 37-Stravinsky: L'Oiseau de feu, Premier tableau: Capture de l'Oiseau de feu par Ivan Tsarévitch
DR13 -5.95 dB -24.38 dB 5:18 38-Stravinsky: L'Oiseau de feu, Premier tableau: Supplications de l'Oiseau de feu
DR14 -10.35 dB -29.21 dB 2:17 39-Stravinsky: L'Oiseau de feu, Premier tableau: Apparition des treize princesses enchantées
DR13 -6.74 dB -24.65 dB 2:25 40-Stravinsky: L'Oiseau de feu, Premier tableau: Jeu des princesses avec les pommes d'or
DR10 -14.32 dB -30.25 dB 1:14 41-Stravinsky: L'Oiseau de feu, Premier tableau: Brusque apparition d'Ivan Tsarévitch
DR13 -5.36 dB -26.21 dB 4:13 42-Stravinsky: L'Oiseau de feu, Premier tableau: Khorovode (Ronde) des princesses
DR14 -6.23 dB -26.37 dB 1:29 43-Stravinsky: L'Oiseau de feu, Premier tableau: Aurore
DR12 -0.25 dB -19.41 dB 1:30 44-Stravinsky: L'Oiseau de feu, Premier tableau: Carillon féerique, apparition des monstres-gardiens de Kachtcheï et capture d'Ivan Tsarévitch
DR13 -1.35 dB -25.51 dB 1:07 45-Stravinsky: L'Oiseau de feu, Premier tableau: Arrivée de Kachtcheï l'Immortel
DR13 -1.09 dB -20.01 dB 1:01 46-Stravinsky: L'Oiseau de feu, Premier tableau: Dialogue de Kachtcheï avec Ivan Tsarévitch
DR13 -1.45 dB -19.95 dB 1:00 47-Stravinsky: L'Oiseau de feu, Premier tableau: Intercession des princesses
DR11 -11.56 dB -27.05 dB 0:30 48-Stravinsky: L'Oiseau de feu, Premier tableau: Apparition de l'Oiseau de feu
DR12 -4.21 dB -19.74 dB 0:43 49-Stravinsky: L'Oiseau de feu, Premier tableau: Danse de la suite de Kachtcheï, enchantée par l'Oiseau de feu
DR13 -0.37 dB -17.48 dB 3:58 50-Stravinsky: L'Oiseau de feu, Premier tableau: Danse infernale de tous les sujets de Kachtcheï
DR13 -10.87 dB -29.82 dB 3:01 51-Stravinsky: L'Oiseau de feu, Premier tableau: Berceuse (L'Oiseau de feu)
DR13 -1.91 dB -21.29 dB 1:03 52-Stravinsky: L'Oiseau de feu, Premier tableau: Réveil de Kachtcheï
DR9 -0.64 dB -13.46 dB 0:05 53-Stravinsky: L'Oiseau de feu, Premier tableau: Mort de Kachtcheï
DR6 -5.48 dB -30.18 dB 1:09 54-Stravinsky: L'Oiseau de feu, Premier tableau: Profondes ténèbres
DR11 -0.12 dB -15.75 dB 3:03 55-Stravinsky: L'Oiseau de feu, Second tableau: Disparition du palais et des sortilèges de Kachtcheï, animation des chevaliers pétrifiés, allégresse générale
––––––––––––––––––––––––––––––––––––––––

Number of tracks: 55
Official DR value: DR13

Samplerate: 44100 Hz
Channels: 2
Bits per sample: 24
Bitrate: 1441 kbps
Codec: FLAC
================================================================================


Thanks to the Original customer!