Francoise Hardy - Ma Jeunesse Fout Le Camp (1967/2016) [Official Digital Download 24-bit/96kHz]

Posted By: HDV
Francoise Hardy - Ma Jeunesse Fout Le Camp (1967/2016) [Official Digital Download 24-bit/96kHz]

Françoise Hardy - Ma jeunesse fout le camp… (1967/2016)
FLAC (tracks) 24-bit/96 kHz | Time - 31:20 minutes | 704 MB
Studio Master, Official Digital Download | Artwork: Front cover

"Ma jeunesse fout le camp…" is a studio album by the French popular singer Françoise Hardy. Released in France in November 1967. The title is very idiomatic, but it in English its general meaning is "My youth is slipping away". This album was the first produced by Hardy's own production company, Asparagus Productions.

Hardy moved toward a more adult, sedate form of orchestrated pop balladry on this 1967 album. Nothing wrong with that per se; what makes it less exciting than her previous work, though, was that in general the material lacked the bounce and melodic strength of her best recordings. "Il N'y a Pas D'Amour Heureux" ("There is No Happy Love") she sings in one of the tracks, and that sets the mournful tone for much of the tunes (half of which were written by herself), which often deal with sentimental themes of sad farewells. Still, it's delivered with classy grace and ornate period production, and the uplifting "Voila" (easily the best cut here) is one of her top classics. John Paul Jones (presumably the future Led Zeppelin bassist) was one of the arrangers.

Tracklist:

01 - Ma jeunesse fout le camp
02 - Viens là
03 - Mon amour adieu
04 - La fin de l'été
05 - En vous aimant bien
06 - Qui peut dire
07 - Des ronds dans l'eau
08 - Il n'y a pas d'amour heureux
09 - Il est trop loin
10 - Mais il y a des soirs
11 - Voilà
12 - C'était charmant

Digtally Remastered in 2016.

Analyzed: Françoise Hardy / Ma jeunesse fout le camp (Remastered 2016)
––––––––––––––––––––––––––––––––––––––––

DR Peak RMS Duration Track
––––––––––––––––––––––––––––––––––––––––
DR9 -0.05 dB -12.66 dB 3:07 01-Ma jeunesse fout le camp
DR8 -0.05 dB -10.40 dB 2:28 02-Viens là
DR9 -0.05 dB -12.06 dB 2:24 03-Mon amour adieu
DR8 -0.05 dB -10.17 dB 2:40 04-La fin de l'été
DR8 -0.05 dB -10.42 dB 2:17 05-En vous aimant bien
DR9 -0.05 dB -10.62 dB 2:06 06-Qui peut dire
DR9 -0.05 dB -11.28 dB 2:26 07-Des ronds dans l'eau
DR9 -0.05 dB -11.70 dB 2:25 08-Il n'y a pas d'amour heureux
DR8 -0.05 dB -10.47 dB 3:54 09-Il est trop loin
DR10 -0.05 dB -12.43 dB 2:14 10-Mais il y a des soirs
DR8 -0.05 dB -10.31 dB 3:22 11-Voilà
DR9 -0.05 dB -10.38 dB 1:57 12-C'était charmant
––––––––––––––––––––––––––––––––––––––––

Number of tracks: 12
Official DR value: DR9

Samplerate: 96000 Hz
Channels: 2
Bits per sample: 24
Bitrate: 2973 kbps
Codec: FLAC
================================================================================


Thanks to the Original customer!