Tags
Language
Tags

Frank Zappa - Zappa '88: The Last U.S. Show (Vinyl) (2021) [24bit/96kHz]

Posted By: delpotro
Frank Zappa - Zappa '88: The Last U.S. Show (Vinyl) (2021) [24bit/96kHz]

Frank Zappa - Zappa '88: The Last U.S. Show (Vinyl) (2021)
Vinyl Rip | FLAC (tracks) 24-bit/96 kHz | Front Cover | Time - 149:49 minutes | 3,06 GB
Art Rock, Jazz Rock | Label: Zappa Records

On June 18, Zappa’s historic, final American show will be released for the first time as the new live album, Zappa ’88: The Last U.S. Show via Zappa Records/UMe. The first posthumous archival release from the ‘88 touring band, the album features 29 unreleased performances including two additional performances from the same tour: Zappa’s wild interpretations of the Allman Brothers Band’s “Whipping Post” from the March 16 show in Providence, R.I. and Led Zeppelin’s “Stairway To Heaven” from the March 23 Towson, Md. show. The record is also notable for containing the first official release of the much talked about “The Beatles Medley.”

Tracklist:
A1 – "We Are Doing Voter Registration Here" (07:00)
A2 – The Black Page (New Age Version) (07:12)
A3 – I Ain’t Got No Heart (01:59)
A4 – Love Of My Life (02:14)
B1 – Inca Roads (08:44)
B2 – Sharleena (06:22)
B3 – Who Needs The Peace Corps? (02:29)
B4 – I Left My Heart In San Francisco (00:35)
C1 – Dickie’s Such An Asshole (06:01)
C2 – When The Lie's So Big (03:38)
C3 – Jesus Thinks You’re A Jerk (08:47)
C4 – Sofa #1 (02:45)
C5 – One Man, One Vote (02:38)
D1 – Happy Birthday, Chad! (01:24)
D2 – Packard Goose Pt. I (02:56)
D3 – Royal March From "L'Histoire Du Soldat" (01:17)
D4 – Theme From The Bartok Piano Concerto #3 (01:20)
D5 – Packard Goose Pt. II (02:03)
D6 – The Torture Never Stops Pt. I (05:09)
D7 – Theme From "Bonanza" (00:36)
D8 – Lonesome Cowboy Burt (04:59)
E1 – The Torture Never Stops Pt. II (07:29)
E2 – City Of Tiny Lites (09:21)
E3 – Pound For A Brown Pt. I (05:25)
F1 – Pound For A Brown Pt. II (05:49)
F2 – The Beatles Medley (09:19)
F3 – Peaches En Regalia (03:36)
G1 – Stairway To Heaven (10:00)
G2 – I Am The Walrus (03:37)
H1 – Whipping Post (06:18)
H2 – Bolero (05:30)
H3 – America The Beautiful (03:58)

foobar2000 1.6.6 / Dynamic Range Meter 1.1.1
log date: 2021-06-19 10:46:02

––––––––––––––––––––––––––––––––––––––––
Analyzed: Frank Zappa / Zappa '88: The Last U.S. Show
––––––––––––––––––––––––––––––––––––––––

DR Peak RMS Duration Track
––––––––––––––––––––––––––––––––––––––––
DR16 -0.70 dB -20.40 dB 6:58 01-"We Are Doing Voter Registration Here"
DR12 -0.04 dB -15.04 dB 7:11 02-The Black Page (New Age Version)
DR12 -0.01 dB -13.08 dB 1:59 03-I Ain’t Got No Heart
DR12 -0.47 dB -14.01 dB 2:17 04-Love Of My Life
DR12 -0.05 dB -14.00 dB 8:43 05-Inca Roads
DR12 -0.01 dB -14.11 dB 6:21 06-Sharleena
DR12 -0.21 dB -15.36 dB 2:29 07-Who Needs The Peace Corps?
DR14 -1.52 dB -18.82 dB 0:35 08-I Left My Heart In San Francisco
DR12 -0.03 dB -15.12 dB 6:00 01-Dickie’s Such An Asshole
DR12 -0.63 dB -14.90 dB 3:38 02-When The Lie's So Big
DR12 -0.05 dB -15.49 dB 8:46 03-Jesus Thinks You’re A Jerk
DR12 -0.86 dB -14.55 dB 2:44 04-Sofa #1
DR12 -0.42 dB -14.20 dB 2:35 05-One Man, One Vote
DR14 -2.03 dB -20.60 dB 1:29 06-Happy Birthday, Chad!
DR11 -0.13 dB -13.37 dB 2:55 07-Packard Goose Pt. I
DR13 -0.87 dB -15.63 dB 1:16 08-Royal March From "L'Histoire Du Soldat"
DR13 -0.97 dB -15.97 dB 1:20 09-Theme From The Bartok Piano Concerto #3
DR11 -0.49 dB -13.43 dB 2:03 10-Packard Goose Pt. II
DR12 -0.01 dB -14.99 dB 5:08 11-The Torture Never Stops Pt. I
DR10 -0.60 dB -12.50 dB 0:29 12-Theme From "Bonanza"
DR12 -0.40 dB -15.37 dB 4:57 13-Lonesome Cowboy Burt
DR12 -0.06 dB -15.56 dB 7:29 01-The Torture Never Stops Pt. II
DR11 -0.01 dB -13.97 dB 9:20 02-City Of Tiny Lites
DR12 -0.83 dB -16.02 dB 5:21 03-Pound For A Brown Pt. I
DR13 -0.01 dB -15.60 dB 5:48 04-Pound For A Brown Pt. II
DR12 -0.06 dB -14.70 dB 9:18 05-The Beatles Medley
DR10 -0.17 dB -12.84 dB 3:34 06-Peaches En Regalia
DR11 -0.01 dB -13.62 dB 10:07 01-Stairway To Heaven
DR12 -0.54 dB -14.85 dB 3:42 02-I Am The Walrus
DR10 -0.01 dB -13.04 dB 6:08 03-Whipping Post
DR12 -1.71 dB -16.82 dB 5:29 04-Bolero
DR10 -1.38 dB -14.29 dB 3:39 05-America The Beautiful
––––––––––––––––––––––––––––––––––––––––

Number of tracks: 32
Official DR value: DR12

Samplerate: 96000 Hz
Channels: 2
Bits per sample: 24
Bitrate: 2924 kbps
Codec: FLAC
================================================================================


Equipment:
Discwasher record brush
Music Hall Ikura turntable
Pro-Ject Clamp It record clamp
Ortofon 2M Blue phono cartridge
Vincent Audio PHO 700 Tube Phono Stage preamp
Psvane 12AU7-T Mark II vacuum tube
Hosa CPR-202 Dual 1/4 inch TS to Dual RCA Stereo interconnect cable
Behringer U-Phoria UMC202HD audio interface

Software:
Cockos REAPER digital audio workstation
iZotope RX 8 audio editor
foobar2000 audio player

Process:
brush > TT > 2M Blue cartridge > PHO 700 preamp > UMC202HD interface > REAPER DAW @ 24/192 > RX8 Spectral De-noise (per channel, per side) > RX8 De-click (auto, manual) > RX8 Normalize (per channel, per side) > Rendered to WAV as individual tracks @ 24/96 > foobar2000 tag and convert

Thanks to the Original customer!