Tags
Language
Tags

Friedrich Gulda - Donau So Blue (1970/2014) [Official Digital Download 24/88]

Posted By: HDV
Friedrich Gulda - Donau So Blue (1970/2014) [Official Digital Download 24/88]

Friedrich Gulda, Albert Golowin - Donau So Blue (1970/2014)
FLAC (tracks) 24-bit/88,2 kHz | Time - 39:07 minutes | 735 MB
Studio Master, Official Digital Download | Artwork: Front cover

The title piece, "Donau So Blue", is a blues on which Austrian pianist-composer Friedrich Gulda is accompanied by two seasoned jazz musicians: Hans Rettenbacher on bass and Manfred Josel on drums. Gulda felt himself to be an outsider in the jazz world. He was a renowned Mozart and Beethoven interpreter, but did not want to be tied down to the world of classical music. And who was the singer Albert Golowin? Gulda describes him as "a dropout, a certain type of Viennese, a highly talented dilettante, a bungled baritone with an aversion to the concert hall". Actually, Golowin was a pseudonym that Gulda used for singing performances. The pianist was celebrated as brilliant and criticized as infant terrible. Often, Gulda would not stick to the announced program; once he performed playing the recorder naked.

Tracklist:

01 - Die schöne Musi
02 - Donau so Blue
03 - Hau di in Gatsch
04 - Selbstgespräch im Kasgraben
05 - Requiem
06 - Andrerseits

Produced & Engineered by Hans Georg Brunner-Schwer.
Recorded in February 1970 at MPS-Studio, Villingen, Germany.
Digitally Remastered.

Musicians:
Friedrich Gulda - piano
Albert Golowin - vocal
J. A. Rettenbacher - acoustic bass
Manfred Josel - drums, percussion

Analyzed: Friedrich Gulda & Albert Golowin / Donau so Blue
––––––––––––––––––––––––––––––––––––––––

DR Peak RMS Duration Track
––––––––––––––––––––––––––––––––––––––––
DR10 -3.00 dB -18.59 dB 9:12 01-Die schöne Musi
DR10 -2.83 dB -17.16 dB 5:56 02-Donau so Blue
DR12 -0.92 dB -16.46 dB 5:26 03-Hau di in Gatsch
DR13 -3.24 dB -21.16 dB 6:36 04-Selbstgespräch im Kasgraben
DR11 -2.72 dB -17.70 dB 7:28 05-Requiem
DR11 -2.85 dB -17.88 dB 4:28 06-Andrerseits
––––––––––––––––––––––––––––––––––––––––

Number of tracks: 6
Official DR value: DR11

Samplerate: 88200 Hz
Channels: 2
Bits per sample: 24
Bitrate: 2523 kbps
Codec: FLAC
================================================================================


Thanks to the Original customer!